<?xml version="1.0" standalone="no"?>
<!DOCTYPE svg PUBLIC "-//W3C//DTD SVG 1.1//EN" "http://www.w3.org/Graphics/SVG/1.1/DTD/svg11.dtd" >
<svg xmlns="http://www.w3.org/2000/svg" xmlns:xlink="http://www.w3.org/1999/xlink" version="1.1">
<metadata>
Created by FontForge 20170731 at Sun Jul 25 11:22:22 2021
 By Aleksey,,,
</metadata>
<defs>
<font id="AxboldPro-Bold" horiz-adv-x="1251" >
  <font-face 
    font-family="AxboldPro"
    font-weight="700"
    font-style="italic"
    font-stretch="normal"
    units-per-em="2048"
    panose-1="2 0 8 0 0 0 0 0 0 0"
    ascent="1638"
    descent="-410"
    x-height="926"
    cap-height="1430"
    bbox="-1683 -567 2681 2021"
    underline-thickness="102"
    underline-position="-307"
    slope="-12"
    unicode-range="U+000A-2260"
  />
<missing-glyph horiz-adv-x="1105" 
d="M162 1430h909v-1440h-909v1440zM324 1313l290 -488l293 488h-583zM547 709l-266 444v-889zM616 594l-290 -485h581zM686 709l268 -447v895z" />
    <glyph glyph-name=".notdef" horiz-adv-x="1105" 
d="M162 1430h909v-1440h-909v1440zM324 1313l290 -488l293 488h-583zM547 709l-266 444v-889zM616 594l-290 -485h581zM686 709l268 -447v895z" />
    <glyph glyph-name=".null" horiz-adv-x="0" 
 />
    <glyph glyph-name=".null" horiz-adv-x="0" 
 />
    <glyph glyph-name="nonmarkingreturn" unicode="&#xa;" horiz-adv-x="0" 
 />
    <glyph glyph-name="space" unicode=" " horiz-adv-x="647" 
 />
    <glyph glyph-name="exclam" unicode="!" horiz-adv-x="464" 
d="M418 1430v-383l-21 -701h-202l-21 698v386h244zM297 258q51 0 92 -41t41 -92q0 -52 -41 -93.5t-92 -41.5q-53 0 -94 41t-41 94q0 51 41.5 92t93.5 41z" />
    <glyph glyph-name="quotedbl" unicode="&#x22;" horiz-adv-x="677" 
d="M354 1430v-170l-22 -287h-201l-22 287v170h245zM645 1430v-170l-22 -287h-199l-23 287v170h244z" />
    <glyph glyph-name="numbersign" unicode="#" horiz-adv-x="1144" 
d="M223 387v660h-131v204h131v179h203v-179h358v179h205v-179h129v-204h-129v-660h129v-205h-129v-192h-205v192h-358v-192h-203v192h-131v205h131zM426 1047v-660h358v660h-358z" />
    <glyph glyph-name="dollar" unicode="$" 
d="M786 1430h19q170 0 291 -121t121 -289v-105h-205v105q0 85 -60 145t-147 60h-19v-412h19q170 0 291 -121t121 -293q0 -167 -121 -288t-291 -121h-19v-144h-204v144h-9q-169 0 -290 121t-121 288v105h205v-105q0 -81 61 -145q59 -59 145 -59h9v411h-9q-173 0 -290 123
q-121 121 -121 291q0 168 121 289t290 121h9v180h204v-180zM786 195h19q88 0 147 59q60 60 60 145t-60 148q-59 59 -147 59h-19v-411zM582 1225h-9q-85 0 -145 -60q-61 -64 -61 -145q0 -84 61 -148q59 -59 145 -59h9v412z" />
    <glyph glyph-name="percent" unicode="%" horiz-adv-x="1325" 
d="M1268 1300l-895 -1298l-170 117l895 1298zM475 815q-124 0 -216.5 92t-92.5 215t92.5 215.5t216.5 92.5q123 0 215 -92.5t92 -215.5t-92 -215t-215 -92zM475 1225q-47 0 -74.5 -28.5t-27.5 -74.5t27.5 -74t74.5 -28q46 0 74.5 28t28.5 74t-28.5 74.5t-74.5 28.5zM995 606
q123 0 215.5 -92.5t92.5 -216.5q0 -123 -92.5 -215t-215.5 -92q-124 0 -216.5 92t-92.5 215q0 125 92 217t217 92zM995 197q46 0 74.5 27.5t28.5 72.5q0 47 -28.5 74.5t-74.5 27.5q-47 0 -75.5 -27.5t-28.5 -74.5q0 -46 28.5 -73t75.5 -27z" />
    <glyph glyph-name="ampersand" unicode="&#x26;" horiz-adv-x="1357" 
d="M1196 266l127 -110l-135 -154l-107 92q-38 -41 -115.5 -72.5t-160.5 -31.5h-232q-81 0 -157 33.5t-131.5 89t-89 131.5t-33.5 157q0 120 64.5 225t142.5 136q-34 44 -63.5 115t-29.5 143q0 108 56.5 202.5t152 151t203.5 56.5q109 0 205 -56.5t152.5 -151t56.5 -202.5
q0 -78 -30 -154t-75.5 -130t-99 -88.5t-100.5 -35.5l-31 33q2 -1 12 -11l2 -1l242 -213l-10 -34v9v6v285h205v-285q0 -75 -21 -135zM688 1225q-88 0 -146.5 -58.5t-58.5 -146.5q0 -85 109 -207h96q91 0 150 58t59 149q0 88 -59.5 146.5t-149.5 58.5zM805 197q41 0 76.5 11.5
t44.5 22.5l-283 248q-89 76 -131 121q-60 -12 -101.5 -68t-41.5 -131q0 -89 57.5 -146.5t146.5 -57.5h232z" />
    <glyph glyph-name="quotesingle" unicode="'" horiz-adv-x="395" 
d="M354 1430v-170l-22 -287h-201l-22 287v170h245z" />
    <glyph glyph-name="parenleft" unicode="(" horiz-adv-x="800" 
d="M367 205q0 -132 96 -225q51 -51 110.5 -73t155.5 -22v-204q-254 0 -412 155q-153 153 -153 369v938q0 220 153 373q156 153 412 153v-205q-97 0 -157.5 -22t-108.5 -72q-96 -93 -96 -227v-938z" />
    <glyph glyph-name="parenright" unicode=")" horiz-adv-x="800" 
d="M524 205v938q0 133 -94 227q-50 50 -110.5 72t-155.5 22v205q258 0 411 -153q154 -154 154 -373v-938q0 -215 -154 -369q-155 -155 -411 -155v204q95 0 155 22t111 73q94 94 94 225z" />
    <glyph glyph-name="asterisk" unicode="*" horiz-adv-x="778" 
d="M547 1087l176 -104l-148 -152l-110 183l49 -207h-211l49 205l-106 -181l-150 146l180 110l-206 -49v213l200 -49l-178 107l148 151l112 -184l-49 211h211l-49 -205l108 178l150 -145l-184 -113l209 49v-213z" />
    <glyph glyph-name="plus" unicode="+" horiz-adv-x="921" 
d="M596 643v-293h-205v293h-295v207h295v295h205v-295h297v-207h-297z" />
    <glyph glyph-name="comma" unicode="," horiz-adv-x="468" 
d="M205 16q11 -4 10 -1q-2 4 -14 16q-39 39 -39 94q0 53 41 94q39 39 94 39t94 -39t39 -94q0 -31 -12 -59l-90 -234l-170 66z" />
    <glyph glyph-name="hyphenminus" unicode="-" horiz-adv-x="921" 
d="M893 850v-207h-797v207h797z" />
    <glyph glyph-name="period" unicode="." horiz-adv-x="464" 
d="M297 258q51 0 92 -41t41 -92q0 -52 -41 -93.5t-92 -41.5q-53 0 -94 41t-41 94q0 51 41.5 92t93.5 41z" />
    <glyph glyph-name="slash" unicode="/" horiz-adv-x="978" 
d="M932 1321l-596 -1307l-186 84l593 1307z" />
    <glyph glyph-name="zero" unicode="0" 
d="M688 1430q141 0 263 -71.5t194 -193t72 -260.5v-389q0 -140 -72 -261.5t-194 -193t-263 -71.5q-139 0 -260.5 71t-193.5 192.5t-72 262.5v389q0 105 42.5 202t114 167.5t168.5 113t201 42.5zM1012 516v389q0 135 -93 227.5t-231 92.5q-136 0 -228.5 -92.5t-92.5 -227.5
v-389q0 -136 92.5 -228.5t228.5 -92.5q138 0 231 92t93 229z" />
    <glyph glyph-name="one" unicode="1" horiz-adv-x="518" 
d="M264 1430q86 0 152.5 -66t66.5 -152v-1222h-207v1222q0 9 -1.5 11t-10.5 2h-102v205h102z" />
    <glyph glyph-name="two" unicode="2" horiz-adv-x="1388" 
d="M1495 905q0 -125 -59 -241t-158 -183l-410 -286h627v-205h-1055v155l721 502q62 44 95.5 111.5t33.5 146.5q0 137 -91.5 228.5t-229.5 91.5q-137 0 -229.5 -92t-92.5 -228v-104h-207v104q0 140 72.5 261.5t194.5 192.5t262 71q105 0 202.5 -42.5t168.5 -113.5t113 -168
t42 -201z" />
    <glyph glyph-name="three" unicode="3" 
d="M1049 737q62 -34 115 -131t53 -207q0 -164 -123 -286.5t-289 -122.5h-232q-166 0 -288.5 122.5t-122.5 286.5v105h205v-105q0 -88 58.5 -146t147.5 -58h232q89 0 148 58t59 146q0 90 -58.5 148.5t-148.5 58.5h-225v207h163q91 0 149 58t58 149q0 88 -58.5 146.5
t-148.5 58.5h-114q-90 0 -149.5 -58.5t-59.5 -146.5v-105h-203v105q0 108 56 202.5t151.5 151t204.5 56.5h114q109 0 204.5 -56.5t151.5 -151t56 -202.5q0 -88 -34 -170t-72 -113z" />
    <glyph glyph-name="four" unicode="4" horiz-adv-x="1306" 
d="M1239 1149v-590h117v-203h-117v-366h-203v366h-710v168l665 946l166 -118l-555 -793h434v590h203z" />
    <glyph glyph-name="five" unicode="5" horiz-adv-x="1259" 
d="M719 1042q139 0 260.5 -71.5t193.5 -193t72 -261.5q0 -141 -72 -262.5t-193.5 -192.5t-260.5 -71q-172 0 -313.5 103.5t-192.5 266.5l197 62q32 -104 115.5 -165.5t193.5 -61.5q137 0 228 91.5t91 229.5q0 137 -91.5 228.5t-227.5 91.5q-116 0 -194 -60t-103 -153l-180 6
l37 801h895v-205h-701l-10 -236q9 7 42.5 18.5t94.5 23t119 11.5z" />
    <glyph glyph-name="six" unicode="6" 
d="M688 -10q-107 0 -207 44.5t-170 123.5q-72 83 -110.5 199.5t-38.5 248.5q0 112 23 213.5t62.5 180t93 146.5t113 116t124.5 84t126.5 56.5t118.5 27.5l103 12l24 -205l-102 -12q-89 -10 -220 -79.5t-161 -141.5q64 38 221 38q141 0 263 -71.5t194 -193t72 -261.5
t-72 -261.5t-194 -193t-263 -71.5zM688 195q138 0 231 92t93 229q0 134 -92 227t-228 93h-4q-144 -3 -230.5 -97t-86.5 -213v-4q3 -133 95.5 -230t221.5 -97z" />
    <glyph glyph-name="seven" unicode="7" horiz-adv-x="1306" 
d="M162 1225v205h1110l-662 -1475l-184 86l530 1184h-794z" />
    <glyph glyph-name="eight" unicode="8" 
d="M1049 737q62 -34 115 -131t53 -207q0 -164 -123 -286.5t-289 -122.5h-232q-166 0 -288.5 122.5t-122.5 286.5q0 110 53 207t115 131q-39 32 -74 113.5t-35 169.5q0 108 56.5 202.5t152.5 151t205 56.5h108q109 0 204.5 -56.5t151.5 -151t56 -202.5q0 -88 -34 -170
t-72 -113zM428 1020q0 -91 58 -149t149 -58h108q91 0 149 58t58 149q0 88 -58.5 146.5t-148.5 58.5h-108q-90 0 -148.5 -58.5t-58.5 -146.5zM805 195q89 0 148 58t59 146q0 90 -58.5 148.5t-148.5 58.5h-232q-89 0 -147.5 -58t-58.5 -149q0 -88 58.5 -146t147.5 -58h232z
" />
    <glyph glyph-name="nine" unicode="9" 
d="M690 1442q107 0 207 -44.5t170 -123.5q72 -83 111 -200t39 -249q0 -155 -44 -289t-114 -225t-159 -159.5t-176 -104t-169 -45.5l-102 -12l-25 205l102 12q89 10 220 79.5t161 141.5q-66 -39 -221 -39q-141 0 -263 71.5t-193.5 193t-71.5 261.5t71.5 261.5t193.5 193.5
t263 72zM690 1237q-138 0 -230.5 -92.5t-92.5 -229.5q0 -134 91.5 -226.5t227.5 -92.5h4q144 3 231 96.5t87 212.5v4q-3 133 -96 230.5t-222 97.5z" />
    <glyph glyph-name="colon" unicode=":" horiz-adv-x="464" 
d="M297 258q51 0 92 -41t41 -92q0 -52 -41 -93.5t-92 -41.5q-53 0 -94 41t-41 94q0 51 41.5 92t93.5 41zM297 926q51 0 92 -41.5t41 -93.5q0 -51 -41 -92.5t-92 -41.5q-52 0 -93.5 41.5t-41.5 92.5q0 53 41 94t94 41z" />
    <glyph glyph-name="semicolon" unicode=";" horiz-adv-x="468" 
d="M205 16q11 -4 10 -1q-2 4 -14 16q-39 39 -39 94q0 53 41 94q39 39 94 39t94 -39t39 -94q0 -31 -12 -59l-90 -234l-170 66zM297 926q51 0 92 -41.5t41 -93.5q0 -51 -41 -92.5t-92 -41.5q-52 0 -93.5 41.5t-41.5 92.5q0 53 41 94t94 41z" />
    <glyph glyph-name="less" unicode="&#x3c;" horiz-adv-x="913" 
d="M877 494v-228l-740 373v123l740 371v-226l-414 -207z" />
    <glyph glyph-name="equal" unicode="=" horiz-adv-x="1085" 
d="M1061 684v-207h-965v207h965zM1061 979v-207h-965v207h965z" />
    <glyph glyph-name="greater" unicode="&#x3e;" horiz-adv-x="913" 
d="M137 494l412 206l-412 207v226l740 -371v-123l-740 -373v228z" />
    <glyph glyph-name="question" unicode="?" 
d="M805 1430q108 0 203.5 -56.5t152 -151t56.5 -202.5q0 -167 -123 -290.5t-289 -123.5q-6 1 -4 6q-8 -24 -8 -53v-207h-207v207q0 64 17.5 112.5t42.5 74.5t57.5 42t56.5 20.5t45 4.5q90 0 148.5 58.5t58.5 148.5q0 88 -59 146.5t-148 58.5h-232q-89 0 -146.5 -58.5
t-57.5 -146.5v-105h-207v105q0 164 123 287t288 123h232zM686 258q51 0 92 -41t41 -92q0 -52 -41 -93.5t-92 -41.5q-52 0 -93.5 41t-41.5 94q0 51 41.5 92t93.5 41z" />
    <glyph glyph-name="at" unicode="@" horiz-adv-x="1599" 
d="M1108 678v16q0 112 -78 187q-72 75 -188 75q-115 0 -187 -75q-77 -74 -77 -187t77 -184q75 -78 187 -78q150 0 233 139l51 93zM1022 10q-91 -26 -186 -26q-201 0 -363 98q-163 99 -262 262q-98 165 -98 361q0 197 98 362q97 160 262 260q166 96 363 96q193 0 362 -96
q165 -100 262 -260q96 -169 96 -362q0 -192 -96 -361q-29 -51 -86 -117h-266v72q-24 -21 -98 -45q-76 -27 -168 -27q-189 0 -330 138q-139 139 -139 329t139 332q140 137 330 137q192 0 332 -137q137 -140 137 -332v-223q9 6 24 74q17 73 17 160q0 218 -152 364
q-147 150 -364 150q-220 0 -367 -150q-152 -146 -152 -364q0 -219 152 -365q149 -152 367 -152q62 0 133 19z" />
    <glyph glyph-name="A" unicode="A" 
d="M367 395v-405h-205v915q0 105 42.5 202t114 167.5t168.5 113t201 42.5q140 0 262 -71t194.5 -192.5t72.5 -261.5v-915h-205v405h-645zM367 905v-305h645v305q0 135 -93 227.5t-231 92.5q-136 0 -228.5 -92.5t-92.5 -227.5z" />
    <glyph glyph-name="B" unicode="B" 
d="M1217 438q0 -120 -61.5 -223.5t-165 -164t-222.5 -60.5h-606v1440h606q152 0 264.5 -112t112.5 -263q0 -81 -33 -158.5t-68 -103.5q65 -38 119 -140t54 -215zM367 1225v-340h401q75 0 123.5 48t48.5 122t-48.5 122t-123.5 48h-401zM367 678v-483h401q106 0 175 68.5
t69 174.5q0 103 -69.5 171.5t-174.5 68.5h-401z" />
    <glyph glyph-name="C" unicode="C" horiz-adv-x="1501" 
d="M883 -10q-139 0 -273.5 54.5t-236.5 156.5q-101 102 -156 234t-55 276q0 141 55.5 273.5t155.5 236.5q103 101 238.5 153.5t272.5 52.5t272 -53t237 -155l73 -74l-145 -144l-72 72q-101 101 -233 136.5t-264.5 0t-233.5 -136.5q-151 -151 -151 -362q0 -214 151 -365
q101 -101 233 -136.5t264.5 0t233.5 136.5l72 72l145 -144l-71 -73q-102 -102 -237 -156.5t-275 -54.5z" />
    <glyph glyph-name="D" unicode="D" horiz-adv-x="1361" 
d="M1327 711q0 -145 -58 -278t-155.5 -230t-230.5 -155t-277 -58h-444v1440h444q145 0 278 -58t230 -154.5t155 -229.5t58 -277zM367 1225v-1030h239q217 0 365.5 149t148.5 367q0 107 -40 202t-108.5 163.5t-163.5 108.5t-202 40h-239z" />
    <glyph glyph-name="E" unicode="E" 
d="M1217 195v-205h-1055v1440h1055v-205h-850v-412h702v-207h-702v-411h850z" />
    <glyph glyph-name="F" unicode="F" 
d="M367 606v-616h-205v1440h1055v-205h-850v-412h702v-207h-702z" />
    <glyph glyph-name="G" unicode="G" horiz-adv-x="1640" 
d="M780 813h826v-102q0 -142 -55.5 -275t-155.5 -235q-102 -102 -237 -156.5t-275 -54.5q-139 0 -273.5 54.5t-236.5 156.5q-101 102 -156 234t-55 276q0 141 55.5 273.5t155.5 236.5q103 101 238.5 153.5t272.5 52.5t272 -53t237 -155l73 -74l-145 -144l-72 72
q-101 101 -233 136.5t-264.5 0t-233.5 -136.5q-151 -151 -151 -362q0 -214 151 -365q101 -101 233 -136.5t264.5 0t233.5 136.5q60 60 98 131.5t46 128.5h-613v207z" />
    <glyph glyph-name="H" unicode="H" 
d="M367 606v-616h-205v1440h205v-617h645v617h205v-1440h-205v616h-645z" />
    <glyph glyph-name="I" unicode="I" horiz-adv-x="401" 
d="M367 -10h-205v1440h205v-1440z" />
    <glyph glyph-name="J" unicode="J" horiz-adv-x="827" 
d="M793 516q0 -141 -72.5 -262.5t-194.5 -192.5t-262 -71h-102v205h102q137 0 229.5 91.5t92.5 229.5v914h207v-914z" />
    <glyph glyph-name="K" unicode="K" horiz-adv-x="1294" 
d="M805 606h-287l-151 -147v-469h-205v1440h205v-682l749 725l144 -148l-529 -512h74q166 0 289 -123.5t123 -290.5v-409h-205v409q0 90 -58.5 148.5t-148.5 58.5z" />
    <glyph glyph-name="L" unicode="L" 
d="M688 -10q-139 0 -260.5 71t-193.5 192.5t-72 262.5v914h205v-914q0 -136 92.5 -228.5t228.5 -92.5h529v-205h-529z" />
    <glyph glyph-name="M" unicode="M" horiz-adv-x="1572" 
d="M850 332l520 1098h168v-1440h-205v882l-420 -882h-129l-417 882v-882h-205v1440h166z" />
    <glyph glyph-name="N" unicode="N" 
d="M1217 1430v-1440h-158l-692 1007v-1007h-205v1440h155l695 -1008v1008h205z" />
    <glyph glyph-name="O" unicode="O" horiz-adv-x="1640" 
d="M883 1430q145 0 279 -58t231 -154.5t155 -229.5t58 -277q0 -145 -58 -278t-155 -230t-231 -155t-279 -58t-278 58t-230 155t-155 230t-58 278q0 144 58 277t155 229.5t230 154.5t278 58zM883 195q144 0 263 68t187 186.5t68 261.5q0 217 -149.5 365.5t-368.5 148.5
q-142 0 -260.5 -67.5t-187 -186t-68.5 -260.5q0 -143 68.5 -261.5t187 -186.5t260.5 -68z" />
    <glyph glyph-name="P" unicode="P" 
d="M1217 983q0 -119 -61 -222.5t-164.5 -164.5t-223.5 -61h-401v-545h-205v1440h606q119 0 222.5 -61t165 -164t61.5 -222zM768 741q106 0 175 69t69 173t-69 173t-175 69h-401v-484h401z" />
    <glyph glyph-name="Q" unicode="Q" horiz-adv-x="1712" 
d="M883 -10q-145 0 -278 58t-230 155t-155 230t-58 278q0 144 58 277t155 229.5t230 154.5t278 58t278.5 -58t231 -154.5t155.5 -229.5t58 -277q0 -125 -40.5 -240.5t-103.5 -191.5l215 -216l-143 -147l-217 217q-75 -63 -191.5 -103t-242.5 -40zM883 1225
q-218 0 -367 -148.5t-149 -365.5q0 -218 149 -367t367 -149q87 0 164 24.5t122 59.5l-202 202l147 146l201 -203q36 45 61 121.5t25 165.5q0 142 -68.5 260.5t-187.5 186t-262 67.5z" />
    <glyph glyph-name="R" unicode="R" 
d="M1217 983q0 -116 -55 -219.5t-120 -140.5q66 -44 120.5 -154t54.5 -231v-248h-205v248q0 126 -86.5 211.5t-214.5 85.5h-344v-545h-205v1440h606q119 0 222.5 -61t165 -164t61.5 -222zM768 741q106 0 175 69t69 173t-69 173t-175 69h-401v-484h401z" />
    <glyph glyph-name="S" unicode="S" 
d="M805 1430q108 0 203.5 -56.5t152 -151t56.5 -202.5v-105h-205v105q0 88 -59 146.5t-148 58.5h-232q-89 0 -147.5 -58.5t-58.5 -146.5q0 -90 58.5 -148.5t147.5 -58.5h232q166 0 289 -123.5t123 -290.5q0 -164 -123 -286.5t-289 -122.5h-232q-166 0 -288.5 122.5
t-122.5 286.5v105h205v-105q0 -88 58.5 -146t147.5 -58h232q89 0 148 58t59 146q0 90 -58.5 148.5t-148.5 58.5h-232q-166 0 -288.5 123.5t-122.5 290.5q0 164 123 287t288 123h232z" />
    <glyph glyph-name="T" unicode="T" 
d="M162 1225v205h1055v-205h-424v-1235h-207v1235h-424z" />
    <glyph glyph-name="U" unicode="U" 
d="M1012 516v914h205v-914q0 -141 -72.5 -262.5t-194.5 -192.5t-262 -71q-139 0 -260.5 71t-193.5 192.5t-72 262.5v914h205v-914q0 -136 92.5 -228.5t228.5 -92.5q138 0 231 92t93 229z" />
    <glyph glyph-name="V" unicode="V" horiz-adv-x="1333" 
d="M1282 1430l-496 -1440h-145l-496 1440h217l353 -1022l350 1022h217z" />
    <glyph glyph-name="W" unicode="W" horiz-adv-x="1802" 
d="M1540 1430h213l-430 -1440h-154l-217 731l-221 -731h-151l-433 1440h215l293 -979l297 985l293 -985z" />
    <glyph glyph-name="X" unicode="X" horiz-adv-x="1492" 
d="M774 932l344 498h248l-467 -680l524 -760h-249l-400 579l-399 -579h-248l522 760l-467 680h78h174z" />
    <glyph glyph-name="Y" unicode="Y" 
d="M1012 977v453h205v-453q0 -96 -35.5 -187t-94 -159.5t-136 -114.5t-158.5 -57v-469h-207v469q-81 11 -158.5 57t-136 114.5t-94 159.5t-35.5 187v453h205v-453q0 -136 92 -228t229 -92q138 0 231 92t93 228z" />
    <glyph glyph-name="Z" unicode="Z" horiz-adv-x="1435" 
d="M1366 1430l-850 -1235h758v-205h-1147l850 1235h-756v205h1145z" />
    <glyph glyph-name="bracketleft" unicode="[" horiz-adv-x="739" 
d="M711 -98v-203h-549v2023h549v-204h-344v-1616h344z" />
    <glyph glyph-name="backslash" unicode="\" horiz-adv-x="978" 
d="M150 1321l186 84l596 -1307l-189 -84z" />
    <glyph glyph-name="bracketright" unicode="]" horiz-adv-x="739" 
d="M162 -98h344v1616h-344v204h549v-2023h-549v203z" />
    <glyph glyph-name="asciicircum" unicode="^" horiz-adv-x="786" 
d="M217 924h-213l301 596h115l299 -596h-211l-146 290z" />
    <glyph glyph-name="underscore" unicode="_" horiz-adv-x="1083" 
d="M1063 49v-207h-1102v207h1102z" />
    <glyph glyph-name="grave" unicode="`" horiz-adv-x="438" 
d="M193 1462l190 -413l-178 -84l-180 231l-72 160z" />
    <glyph glyph-name="a" unicode="a" horiz-adv-x="1134" 
d="M631 926q125 0 233 -64t172 -172t64 -233v-467h-205v69q-18 -18 -100 -43.5t-164 -25.5q-190 0 -329.5 139t-139.5 328q0 125 64 233t172 172t233 64zM631 195q105 0 184.5 70t79.5 192q0 114 -75 188t-189 74t-189 -74t-75 -188q0 -113 75 -187.5t189 -74.5z" />
    <glyph glyph-name="b" unicode="b" horiz-adv-x="1134" 
d="M631 -10q-190 0 -329.5 139t-139.5 328v973h205v-576q19 19 100.5 45.5t163.5 26.5q125 0 233 -64t172 -172t64 -233q0 -189 -139.5 -328t-329.5 -139zM631 195q114 0 189 74.5t75 187.5t-74.5 186.5t-189.5 75.5h-4q-109 0 -184.5 -74.5t-75.5 -187.5t75 -187.5
t189 -74.5z" />
    <glyph glyph-name="c" unicode="c" horiz-adv-x="1126" 
d="M862 334l182 -98q-61 -112 -174 -179t-239 -67q-190 0 -329.5 139t-139.5 328q0 125 64 233t172 172t233 64q127 0 239 -67.5t174 -178.5l-182 -98q-35 66 -95.5 101.5t-135.5 35.5q-114 0 -189 -74t-75 -188q0 -113 75 -187.5t189 -74.5q75 0 135.5 36.5t95.5 102.5z
" />
    <glyph glyph-name="d" unicode="d" horiz-adv-x="1134" 
d="M631 -10q-190 0 -329.5 139t-139.5 328q0 125 64 233t172 172t233 64q82 0 163.5 -26.5t100.5 -45.5v576h205v-973q0 -189 -139.5 -328t-329.5 -139zM631 195q114 0 189 74.5t75 187.5t-75.5 187.5t-184.5 74.5h-4q-115 -2 -189.5 -75.5t-74.5 -186.5t75 -187.5
t189 -74.5z" />
    <glyph glyph-name="e" unicode="e" horiz-adv-x="1134" 
d="M967 139q-44 -47 -95 -78q-115 -71 -241 -71q-191 0 -330 139t-139 328q0 190 139 329q140 140 330 140t330 -140q139 -139 139 -329v-101h-717q15 -61 82 -110q66 -51 166 -51q74 0 139 41q28 18 53 47zM383 559h496q-15 62 -82 111t-166 49t-166 -49t-82 -111z" />
    <glyph glyph-name="f" unicode="f" horiz-adv-x="901" 
d="M702 1069q-76 0 -120.5 -41t-44.5 -102h297v-207h-297v-729h-205v729h-170v207h170q2 137 109.5 243.5t260.5 106.5h164v-207h-164z" />
    <glyph glyph-name="g" unicode="g" horiz-adv-x="1134" 
d="M631 -514q-128 0 -240.5 67t-173.5 179l-47 92l178 96l49 -90q37 -66 98 -102.5t136 -36.5q114 0 189 74.5t75 187.5v108q-18 -18 -100 -44.5t-164 -26.5q-190 0 -329.5 139t-139.5 328q0 125 64 233t172 172t233 64t233 -64t172 -172t64 -233v-504q0 -189 -139.5 -328
t-329.5 -139zM631 195q116 2 190 73.5t74 188.5q0 114 -75 188t-189 74t-189 -74t-75 -188q0 -111 74 -186.5t186 -75.5h4z" />
    <glyph glyph-name="h" unicode="h" horiz-adv-x="1134" 
d="M631 926q125 0 233 -64t172 -172t64 -233v-467h-205v467q0 114 -75 188t-189 74t-189 -74t-75 -188v-467h-205v1440h205v-576q18 18 99.5 45t164.5 27z" />
    <glyph glyph-name="i" unicode="i" horiz-adv-x="464" 
d="M399 -10h-206v907h206v-907zM297 952q-53 0 -94 41t-41 94q0 54 41 94t94 40q52 0 92.5 -40.5t40.5 -93.5q0 -52 -41 -93.5t-92 -41.5z" />
    <glyph glyph-name="j" unicode="j" horiz-adv-x="438" 
d="M-176 -47v932h207v-932q0 -93 -38 -179t-101.5 -149t-150 -101t-179.5 -38h-105v205h105q112 0 187 74.5t75 187.5zM-76 952q-51 0 -92 41.5t-41 93.5q0 53 40.5 93.5t92.5 40.5q53 0 94 -40t41 -94q0 -53 -41.5 -94t-93.5 -41z" />
    <glyph glyph-name="k" unicode="k" horiz-adv-x="1019" 
d="M727 592q64 -5 139.5 -107.5t75.5 -220.5v-274h-205v274q0 60 -37 97.5t-96 37.5h-106l-131 -110v-299h-205v1440h205v-873l485 410l133 -156z" />
    <glyph glyph-name="l" unicode="l" horiz-adv-x="516" 
d="M379 195h102v-205h-102q-86 0 -151.5 65.5t-65.5 151.5v1223h205v-1223q0 -9 1.5 -10.5t10.5 -1.5z" />
    <glyph glyph-name="m" unicode="m" horiz-adv-x="1366" 
d="M987 926q137 0 240.5 -103t103.5 -239v-594h-207v594q0 60 -38 97.5t-99 37.5q-62 0 -100.5 -37.5t-38.5 -97.5v-594h-205v594q0 60 -38 97.5t-101 37.5q-61 0 -99 -37.5t-38 -97.5v-594h-205v594q0 136 103 239t239 103q76 0 146 -31t95 -64q26 33 97 64t145 31z" />
    <glyph glyph-name="n" unicode="n" horiz-adv-x="1134" 
d="M631 926q125 0 233 -64t172 -172t64 -233v-467h-205v467q0 114 -75 188t-189 74t-189 -74t-75 -188v-467h-205v467q0 125 64 233t172 172t233 64z" />
    <glyph glyph-name="o" unicode="o" horiz-adv-x="1134" 
d="M631 926q125 0 233 -64t172 -172t64 -233q0 -189 -139.5 -328t-329.5 -139t-329.5 139t-139.5 328q0 125 64 233t172 172t233 64zM631 195q114 0 189 74.5t75 187.5q0 114 -75 188t-189 74t-189 -74t-75 -188q0 -113 75 -187.5t189 -74.5z" />
    <glyph glyph-name="p" unicode="p" horiz-adv-x="1134" 
d="M631 926q190 0 329.5 -139t139.5 -328q0 -125 -64 -233t-172 -172t-233 -64q-82 0 -164 26.5t-100 44.5v-575h-205v973q0 189 139.5 328t329.5 139zM631 721q-114 0 -189 -74.5t-75 -187.5t75.5 -187.5t184.5 -74.5h4q115 2 189.5 75.5t74.5 186.5t-75 187.5t-189 74.5z
" />
    <glyph glyph-name="q" unicode="q" horiz-adv-x="1134" 
d="M631 926q190 0 329.5 -139t139.5 -328v-973h-205v575q-18 -18 -100 -44.5t-164 -26.5q-125 0 -233 64t-172 172t-64 233q0 189 139.5 328t329.5 139zM631 721q-114 0 -189 -74.5t-75 -187.5t74.5 -186.5t189.5 -75.5h4q109 0 184.5 74.5t75.5 187.5t-75 187.5t-189 74.5z
" />
    <glyph glyph-name="r" unicode="r" horiz-adv-x="841" 
d="M752 694q-79 25 -121 25q-111 0 -187 -76q-77 -77 -77 -186v-467h-205v467q0 194 137 334q138 135 332 135q83 0 186 -39z" />
    <glyph glyph-name="s" unicode="s" horiz-adv-x="958" 
d="M358 297q10 -42 17.5 -55.5t25.5 -24.5q42 -29 144 -29q101 0 151 33q45 26 45 55q0 25 -10.5 39.5t-36.5 26.5q-66 29 -137 29h-6q-205 0 -293 73q-46 35 -71 86.5t-25 108.5q0 66 37 135q40 69 129 111q75 40 223 43h8q140 0 225 -45q90 -54 125 -117q7 -13 41 -88
l-200 -64q-10 45 -18.5 62t-26.5 31q-40 32 -150 32h-6q-113 0 -148 -32q-36 -31 -36 -68q0 -18 6 -27.5t24 -21.5q49 -27 156 -27q171 0 280 -67q54 -35 83.5 -93t31.5 -127v-6q0 -98 -57 -161q-55 -61 -150 -91q-89 -28 -192 -28h-6q-138 0 -215 39q-90 41 -125 106
q-16 21 -39 92z" />
    <glyph glyph-name="t" unicode="t" horiz-adv-x="811" 
d="M616 195h156v-205h-156q-156 0 -263 113t-107 278v338h-92v207h92v350h205v-350h159v-207h-159v-338q0 -89 43.5 -137.5t121.5 -48.5z" />
    <glyph glyph-name="u" unicode="u" horiz-adv-x="1134" 
d="M895 926h205v-469q0 -189 -139.5 -328t-329.5 -139t-329.5 139t-139.5 328v469h205v-469q0 -113 75 -187.5t189 -74.5t189 74.5t75 187.5v469z" />
    <glyph glyph-name="v" unicode="v" horiz-adv-x="1263" 
d="M975 926h229l-471 -936h-127l-469 936h230l303 -604z" />
    <glyph glyph-name="w" unicode="w" horiz-adv-x="1366" 
d="M1124 926h207v-594q0 -136 -103.5 -239t-240.5 -103q-74 0 -145 30.5t-97 63.5q-25 -33 -95 -63.5t-146 -30.5q-136 0 -239 103t-103 239v594h205v-594q0 -60 38.5 -98.5t98.5 -38.5q63 0 101 37.5t38 99.5v594h205v-594q0 -60 39 -98.5t100 -38.5q60 0 98.5 38.5
t38.5 98.5v594z" />
    <glyph glyph-name="x" unicode="x" horiz-adv-x="1411" 
d="M858 496l469 -506h-278l-330 354l-328 -354h-278l467 506l-398 430h279l258 -279l256 279h280z" />
    <glyph glyph-name="y" unicode="y" horiz-adv-x="1134" 
d="M893 926h207v-973q0 -189 -139.5 -328t-329.5 -139q-128 0 -240.5 67t-173.5 179l-47 92l178 96l49 -90q37 -66 98 -102.5t136 -36.5q114 0 188 74.5t74 187.5v104q-17 -17 -99 -42t-163 -25q-190 0 -329.5 139t-139.5 328v469h205v-469q0 -113 75 -187.5t189 -74.5
q113 0 187.5 71.5t74.5 190.5v469z" />
    <glyph glyph-name="z" unicode="z" horiz-adv-x="1247" 
d="M1221 926v-160l-531 -571h600v-205h-915v168l524 561h-496v207h818z" />
    <glyph glyph-name="braceleft" unicode="{" horiz-adv-x="729" 
d="M309 477h205v-301q0 -54 37 -88q21 -23 47 -31t84 -8v-203q-177 0 -274 97q-99 99 -99 233v301zM309 1337q0 137 99 236q93 96 274 96v-205q-58 0 -84 -7t-47 -27q-37 -40 -37 -93v-331q0 -160 -117 -256l-9 -8q3 2 24 20q-29 15 -26 12q1 -1 9 -6q119 -99 119 -258v-127
h-205v127q0 38 -10.5 61t-38.5 45q-56 39 -176 39v205q69 0 107.5 9.5t68.5 31.5q27 18 38 42t11 63v331z" />
    <glyph glyph-name="bar" unicode="|" horiz-adv-x="401" 
d="M367 -205h-205v1829h205v-1829z" />
    <glyph glyph-name="braceright" unicode="}" horiz-adv-x="729" 
d="M457 477v-301q0 -136 -97 -233t-276 -97v203q58 0 84 8t49 31q35 35 35 88v301h205zM457 1337v-331q0 -38 11.5 -61.5t39.5 -43.5q30 -22 67.5 -31.5t106.5 -9.5v-205q-68 0 -106 -9t-68 -30q-28 -22 -39.5 -45.5t-11.5 -60.5v-127h-205v127q0 159 119 258l9 7l-26 -13
l23 -19q-3 3 -8 7q-117 96 -117 256v331q0 55 -35 93q-21 19 -48 26.5t-85 7.5v205q183 0 276 -96q97 -94 97 -236z" />
    <glyph glyph-name="asciitilde" unicode="~" horiz-adv-x="962" 
d="M510 635q-118 -76 -250 -51q-129 24 -233 174l170 116q31 -49 51.5 -66.5t50.5 -23.5q48 -8 94 19l27 20q117 76 250 51q126 -23 233 -174l-170 -116q-32 49 -53.5 66.5t-50.5 23.5q-47 8 -94 -19z" />
    <glyph glyph-name="nbspace" unicode="&#xa0;" horiz-adv-x="647" 
 />
    <glyph glyph-name="exclamdown" unicode="&#xa1;" horiz-adv-x="405" 
d="M160 -526v383l20 700h203l20 -698v-385h-243zM281 645q-51 0 -92.5 41t-41.5 92q0 52 41.5 93.5t92.5 41.5q53 0 94 -41.5t41 -93.5q0 -51 -41.5 -92t-93.5 -41z" />
    <glyph glyph-name="cent" unicode="&#xa2;" horiz-adv-x="1126" 
d="M862 334l182 -98q-61 -112 -174 -179t-239 -67q-190 0 -329.5 139t-139.5 328q0 125 64 233t172 172t233 64q127 0 239 -67.5t174 -178.5l-182 -98q-35 66 -95.5 101.5t-135.5 35.5q-114 0 -189 -74t-75 -188q0 -113 75 -187.5t189 -74.5q75 0 135.5 36.5t95.5 102.5z
M905 1014l-528 -1166l-47 21l530 1165z" />
    <glyph glyph-name="sterling" unicode="&#xa3;" horiz-adv-x="1263" 
d="M688 1393q122 0 238 -72q28 -20 51 -43l14 -14v-33l-131 -129q-61 55 -90 65q-49 17 -82 17q-76 0 -147 -62q-37 -34 -37 -96v-2q0 -62 24 -115h349l22 -24v-162l-22 -23h-275v43q10 -36 14 -61q0 31 -36 31h297l22 -23v-186h-326q30 0 33 14q-10 -35 -31 -76
q-17 -38 -59 -100q-5 -8 -9 -14t-5 -7l6 7h-74q144 0 246 -99q59 -53 121 -53q81 0 200 125h33l133 -129q-190 -205 -368 -205q-135 0 -262 109q-26 23 -43 30q-26 13 -58 13q-80 0 -203 -72l-53 -37l-127 160q119 106 127 113q80 77 101 100q53 59 73 92q28 45 39 70
l-14 -41h-184v186l22 23h189q0 -19 -5 -19t-12 19q-5 0 -6 -13h-166l-22 23v162l22 24h90q-12 35 -12 109v12q0 104 55 189q13 23 47 57q132 117 291 117z" />
    <glyph glyph-name="currency" unicode="&#xa4;" horiz-adv-x="1234" 
d="M545 195q114 0 189 74.5t75 187.5q0 114 -75 188t-189 74t-190 -74t-76 -188q0 -112 76 -187t190 -75zM336 879q77 47 209 47q135 0 217 -49l45 49h278l-167 -183q96 -107 96 -286q0 -149 -66 -240l211 -227h-280l-72 78q-96 -78 -262 -78q-161 0 -256 71l-66 -71h-280
l202 219q-69 90 -69 248q0 187 100 293l-162 176h279z" />
    <glyph glyph-name="yen" unicode="&#xa5;" horiz-adv-x="1232" 
d="M956 977v453h174v-453q0 -96 -30 -187t-80 -159.5t-115.5 -114.5t-134.5 -57v-469h-176v469q-93 14 -175.5 87t-134 188.5t-51.5 242.5v453h175v-453q0 -137 78.5 -228.5t195.5 -91.5t195.5 91.5t78.5 228.5zM1227 340v-207h-1100v207h1100zM1227 610v-207h-1100v207
h1100z" />
    <glyph glyph-name="brokenbar" unicode="&#xa6;" horiz-adv-x="401" 
d="M367 733h-205v787h205v-787zM367 -410h-205v787h205v-787z" />
    <glyph glyph-name="section" unicode="&#xa7;" horiz-adv-x="909" 
d="M403 723v-2q0 -52 46 -92q47 -29 88 -29h6q55 0 100 39q35 38 35 82v2q0 46 -39 82q-42 39 -100 39q-54 0 -99 -39q-37 -37 -37 -82zM547 1454q152 0 256 -113q41 -44 69 -114q-158 -76 -192 -76q-12 28 -29 49q-44 47 -104 47q-48 0 -90 -22q-41 -27 -41 -70
q0 -32 26 -49q25 -18 76 -37q85 -26 119 -33q105 -30 172 -106q33 -46 41 -64q35 -66 35 -139v-12q0 -88 -51 -168q-43 -59 -46 -62q-10 7 -8.5 4.5t15.5 -14.5q77 -80 77 -182v-10q0 -83 -49 -156q-12 -18 -43 -49q-56 -50 -121 -70q-59 -20 -116 -20h-17q-92 0 -178 53
q-84 55 -141 174l188 90q16 -44 33 -61q38 -47 104 -47h5q51 0 88 22q41 24 41 68v2q0 26 -25 45q-5 3 -13 8t-10 6q-39 22 -100 39q-31 10 -69 16q-47 15 -72 29q-28 11 -76 53q-28 24 -45 50q-59 82 -59 180v12q0 83 45 160q15 24 43 55q19 19 16 19q-1 0 -10 -5
q-82 52 -82 199q0 113 82 201q41 41 78 57q84 41 178 41z" />
    <glyph glyph-name="dieresis" unicode="&#xa8;" horiz-adv-x="763" 
d="M215 1237q51 0 92 -41.5t41 -93.5q0 -51 -41 -92t-92 -41q-52 0 -93.5 41t-41.5 92q0 52 41 93.5t94 41.5zM569 1237q51 0 92 -41.5t41 -93.5q0 -51 -41 -92t-92 -41q-52 0 -93.5 41t-41.5 92q0 52 41 93.5t94 41.5z" />
    <glyph glyph-name="copyright" unicode="&#xa9;" horiz-adv-x="1636" 
d="M938 1358q170 0 318.5 -88t236.5 -236.5t88 -318.5q0 -169 -88 -317t-236.5 -236t-318.5 -88q-171 0 -319.5 88t-236 236t-87.5 317q0 170 87.5 318.5t236 236.5t319.5 88zM936 244q202 0 338.5 136t136.5 337q0 203 -136.5 339t-338.5 136q-201 0 -338 -136.5
t-137 -338.5q0 -201 137 -337t338 -136zM936 272q-85 0 -170 34t-148 97q-62 62 -96.5 145t-34.5 171q0 87 34.5 170t96.5 145q83 83 200.5 113t234.5 0t200 -113l62 -61l-125 -125l-62 61q-83 85 -192.5 85t-192.5 -85q-79 -76 -79 -190t79 -193q83 -83 192.5 -83t192.5 83
l62 64l125 -125l-62 -62q-63 -63 -147.5 -97t-169.5 -34z" />
    <glyph glyph-name="ordfeminine" unicode="&#xaa;" horiz-adv-x="862" 
d="M502 1438q137 0 238.5 -102t101.5 -240v-338h-166v33l-9 -2q-96 -31 -165 -31q-136 0 -238 101.5t-102 236.5q0 138 101.5 240t238.5 102zM676 1106v-10q0 76 -49 125t-125 49q-75 0 -124.5 -49t-49.5 -125q0 -74 49.5 -123t124.5 -49q102 0 153 92l41 76z" />
    <glyph glyph-name="guillemotleft" unicode="&#xab;" horiz-adv-x="1275" 
d="M193 377v141l282 184l135 91q103 -151 103 -185l-248 -162q184 -117 260 -174l-102 -155q-37 0 -84 33l-211 137zM655 377v141l281 184l137 91q101 -149 101 -185l-246 -162q128 -83 260 -174l-105 -155q-35 0 -82 33l-213 137z" />
    <glyph glyph-name="logicalnot" unicode="&#xac;" horiz-adv-x="1024" 
d="M786 627h-530v209h739v-512h-209v303z" />
    <glyph glyph-name="softhyphen" unicode="&#xad;" horiz-adv-x="921" 
d="M893 850v-207h-797v207h797z" />
    <glyph glyph-name="registered" unicode="&#xae;" horiz-adv-x="1638" 
d="M1038 772q55 0 92 37t37 94q0 55 -37 92t-92 37h-239v-260h239zM799 270q59 -26 166 -26q130 0 202 41v114q0 72 -49 121t-119 49h-200v-299zM1370 449q72 72 72 268q0 199 -137 336t-340 137q-76 0 -7 32q13 6 31 13h49q136 0 234 -98q98 -101 98 -234q0 -95 -43 -168
q-43 -76 -45 -76q2 -2 47 -84q41 -80 41 -176v50zM598 1024l31 29q-137 -137 -137 -336t137 -336q9 -9 -3 1q-9 7 -28 24v618zM967 1358q266 0 454 -191q191 -188 191 -452q0 -262 -191 -453q-188 -188 -454 -188q-264 0 -455 188q-188 191 -188 453q0 264 188 452
q191 191 455 191z" />
    <glyph glyph-name="macron" unicode="&#xaf;" horiz-adv-x="854" 
d="M815 1432v-207h-854v207h854z" />
    <glyph glyph-name="degree" unicode="&#xb0;" horiz-adv-x="606" 
d="M350 1452q89 0 159.5 -70t70.5 -159q0 -88 -70.5 -159t-159.5 -71t-159 71t-70 159q0 89 70 159t159 70zM350 1161q64 0 64 62q0 61 -64 61q-32 0 -46.5 -14.5t-14.5 -46.5q0 -62 61 -62z" />
    <glyph glyph-name="plusminus" unicode="&#xb1;" horiz-adv-x="921" 
d="M596 770v-293h-205v293h-295v207h295v295h205v-295h297v-207h-297zM893 446v-204h-797v204h797z" />
    <glyph glyph-name="twosuperior" unicode="&#xb2;" horiz-adv-x="696" 
d="M657 1184q0 -63 -31.5 -125.5t-80.5 -97.5l-47 -31h159v-187h-548v142l329 229q19 13 26 28.5t7 41.5q0 86 -88 86t-88 -86v-94h-186v94q0 106 84 189t190 83q107 0 190.5 -83t83.5 -189z" />
    <glyph glyph-name="threesuperior" unicode="&#xb3;" horiz-adv-x="622" 
d="M553 1120q-6 3 -4 -4q1 -4 8 -23q29 -78 29 -126q0 -86 -69 -155t-157 -69h-98q-86 0 -155.5 69t-69.5 155v94h186v-94q0 -22 8 -29.5t31 -7.5h98q23 0 31 7.5t8 29.5q0 23 -8 31t-31 8h-145v188h121q23 0 30 7t7 30t-7.5 31t-29.5 8h-49q-24 0 -32.5 -8t-8.5 -31v-92
h-187v92q0 86 70 155.5t158 69.5h49q86 0 155.5 -69.5t69.5 -155.5q0 -25 -17 -97q-4 -18 0 -19q2 -1 9 5z" />
    <glyph glyph-name="acute" unicode="&#xb4;" horiz-adv-x="444" 
d="M211 1464l184 -141l-94 -123l-195 -153l-135 108z" />
    <glyph glyph-name="mu" unicode="&#xb5;" horiz-adv-x="1173" 
d="M485 23v-390l-24 -22h-162l-23 22v1336h23l2 2h158l2 -2h24v-609q0 -119 131 -153q36 -8 97 -8q87 0 129 22q61 27 80 76q10 42 10 74v569l18 29h164l27 -25v-915l-27 -25h-164l-18 29v8q-54 -51 -225 -51q-174 0 -222 33z" />
    <glyph glyph-name="paragraph" unicode="&#xb6;" horiz-adv-x="1140" 
d="M768 86v1059h-80v-1059h-211v539q-105 15 -194 98q-109 100 -109 262q0 165 113 266q112 103 297 103h458v-209h-65v-1059h-209z" />
    <glyph glyph-name="periodcentered" unicode="&#xb7;" horiz-adv-x="647" 
d="M250 852q44 0 79.5 -36t35.5 -79q0 -44 -35.5 -79t-79.5 -35q-43 0 -79 35t-36 79q0 43 36 79t79 36z" />
    <glyph glyph-name="cedilla" unicode="&#xb8;" horiz-adv-x="804" 
d="M600 -328q-86 0 -141 70q-19 16 -19 55l125 90q29 -39 35 -39h4q2 2 2 0t2 -4q0 -2 -2 -2q-8 0 -145 -51l55 277h176l-12 -62q40 -6 78 -74q20 -41 20 -84q0 -75 -55 -124q-55 -52 -123 -52z" />
    <glyph glyph-name="onesuperior" unicode="&#xb9;" horiz-adv-x="358" 
d="M172 1456q51 0 96 -44.5t45 -96.5v-572h-186v572q0 34 23 33q23 -2 44 -31q23 -32 0 -43q-8 -4 -22 -4h-94v186h94z" />
    <glyph glyph-name="ordmasculine" unicode="&#xba;" horiz-adv-x="688" 
d="M379 1456q107 0 190.5 -83t83.5 -189v-168q0 -106 -83.5 -189.5t-190.5 -83.5q-106 0 -190.5 83.5t-84.5 189.5v168q0 105 84.5 188.5t190.5 83.5zM467 1016v168q0 41 -22.5 63.5t-65.5 22.5t-65.5 -22.5t-22.5 -63.5v-168q0 -86 88 -86t88 86z" />
    <glyph glyph-name="guillemotright" unicode="&#xbb;" horiz-adv-x="1273" 
d="M1174 377l-134 -90l-213 -137q-47 -33 -82 -33l-104 155q132 91 260 174l-246 162q0 36 101 185l137 -91l281 -184v-141zM713 377l-135 -90l-211 -137q-47 -33 -84 -33l-103 155q76 57 260 174l-247 162q0 33 100 185l137 -91l283 -184v-141z" />
    <glyph glyph-name="onequarter" unicode="&#xbc;" horiz-adv-x="1107" 
d="M172 1456q51 0 96 -44.5t45 -96.5v-572h-186v572q0 34 23 33q23 -2 44 -31q23 -32 0 -43q-8 -4 -22 -4h-94v186h94zM1001 391v-55h52v-189h-52v-159h-188v159h-309v140l327 465l154 -109l-217 -307h45v55h188zM889 1321l-594 -1307l-189 84l594 1307z" />
    <glyph glyph-name="onehalf" unicode="&#xbd;" horiz-adv-x="1110" 
d="M172 1456q51 0 97 -44.5t46 -96.5v-572h-188v572q0 34 23 33q23 -2 44 -31q23 -32 0 -43q-8 -4 -22 -4h-94v186h94zM889 1321l-594 -1307l-189 84l594 1307zM1077 430q0 -62 -32 -125t-82 -96l-45 -33h159v-186h-549v141l328 229q35 23 35 70q0 88 -88 88t-88 -88v-94
h-187v94q0 106 84.5 190.5t190.5 84.5q107 0 190.5 -84.5t83.5 -190.5z" />
    <glyph glyph-name="threequarters" unicode="&#xbe;" horiz-adv-x="1284" 
d="M1174 383v-47h51v-189h-51v-159h-187v159h-309v140l328 465l151 -109l-215 -307h45v47h187zM1061 1321l-594 -1307l-186 84l593 1307zM555 1120q-6 3 -5 -4q0 -5 9 -26q29 -77 29 -123q0 -86 -70 -155t-158 -69h-98q-86 0 -155.5 69t-69.5 155v94h186v-94q0 -22 8 -29.5
t31 -7.5h98q23 0 32 7.5t9 29.5q0 23 -8 31t-33 8h-143v188h119q24 0 31.5 7t7.5 30t-8 31t-31 8h-49q-23 0 -31 -8t-8 -31v-92h-187v92q0 87 69.5 156t156.5 69h49q86 0 155.5 -69.5t69.5 -155.5q0 -25 -16 -95q-5 -21 1 -21q3 0 9 5z" />
    <glyph glyph-name="questiondown" unicode="&#xbf;" horiz-adv-x="1232" 
d="M641 -526q-166 0 -289 122.5t-123 286.5q0 167 123 290.5t289 123.5q6 -1 4 -6q8 24 8 53v207h207v-207q0 -64 -17.5 -112.5t-42.5 -74.5t-57.5 -42t-56.5 -20.5t-45 -4.5q-90 0 -148.5 -58.5t-58.5 -148.5q0 -88 59 -146.5t148 -58.5h231q89 0 147 58.5t58 146.5v105
h207v-105q0 -164 -123 -286.5t-289 -122.5h-231zM760 645q-51 0 -92 41t-41 92q0 52 41 93.5t92 41.5q52 0 93.5 -41.5t41.5 -93.5q0 -51 -41.5 -92t-93.5 -41z" />
    <glyph glyph-name="Agrave" unicode="&#xc0;" 
d="M367 395v-405h-205v915q0 105 42.5 202t114 167.5t168.5 113t201 42.5q140 0 262 -71t194.5 -192.5t72.5 -261.5v-915h-205v405h-645zM367 905v-305h645v305q0 135 -93 227.5t-231 92.5q-136 0 -228.5 -92.5t-92.5 -227.5zM623 1880l239 -309l-135 -109l-195 154l-94 123
z" />
    <glyph glyph-name="Aacute" unicode="&#xc1;" 
d="M367 395v-405h-205v915q0 105 42.5 202t114 167.5t168.5 113t201 42.5q140 0 262 -71t194.5 -192.5t72.5 -261.5v-915h-205v405h-645zM367 905v-305h645v305q0 135 -93 227.5t-231 92.5q-136 0 -228.5 -92.5t-92.5 -227.5zM791 1880l184 -141l-94 -123l-195 -154
l-137 109z" />
    <glyph glyph-name="Acircumflex" unicode="&#xc2;" 
d="M367 395v-405h-205v915q0 105 42.5 202t114 167.5t168.5 113t201 42.5q140 0 262 -71t194.5 -192.5t72.5 -261.5v-915h-205v405h-645zM367 905v-305h645v305q0 135 -93 227.5t-231 92.5q-136 0 -228.5 -92.5t-92.5 -227.5zM643 1853h113q16 -10 116 -129l121 -145
l-151 -129q-36 25 -78 78q-71 84 -71 77q0 -2 5 -10l-114 -135h-33l-125 105v32z" />
    <glyph glyph-name="Atilde" unicode="&#xc3;" 
d="M367 395v-405h-205v915q0 105 42.5 202t114 167.5t168.5 113t201 42.5q140 0 262 -71t194.5 -192.5t72.5 -261.5v-915h-205v405h-645zM367 905v-305h645v305q0 135 -93 227.5t-231 92.5q-136 0 -228.5 -92.5t-92.5 -227.5zM752 1739l14 -13q11 -7 27 -4q11 3 19.5 13
t39.5 57l168 -113q-91 -133 -186 -153q-44 -9 -93.5 1t-89.5 36l-14 12q-11 7 -27 4q-11 -2 -19 -11.5t-40 -58.5l-168 113q92 134 186 154q44 9 93.5 -1t89.5 -36z" />
    <glyph glyph-name="Adieresis" unicode="&#xc4;" 
d="M367 395v-405h-205v915q0 105 42.5 202t114 167.5t168.5 113t201 42.5q140 0 262 -71t194.5 -192.5t72.5 -261.5v-915h-205v405h-645zM367 905v-305h645v305q0 135 -93 227.5t-231 92.5q-136 0 -228.5 -92.5t-92.5 -227.5zM526 1767q51 0 92 -41.5t41 -93.5
q0 -51 -41 -92t-92 -41q-52 0 -93.5 41t-41.5 92q0 52 41.5 93.5t93.5 41.5zM881 1767q51 0 92 -41.5t41 -93.5q0 -51 -41 -92t-92 -41q-52 0 -94 41t-42 92q0 52 41.5 93.5t94.5 41.5z" />
    <glyph glyph-name="Aring" unicode="&#xc5;" 
d="M367 395v-405h-205v915q0 105 42.5 202t114 167.5t168.5 113t201 42.5q140 0 262 -71t194.5 -192.5t72.5 -261.5v-915h-205v405h-645zM367 905v-305h645v305q0 135 -93 227.5t-231 92.5q-136 0 -228.5 -92.5t-92.5 -227.5zM705 1905q89 0 159 -70.5t70 -159.5
q0 -88 -70 -158.5t-159 -70.5t-159.5 70.5t-70.5 158.5q0 89 70.5 159.5t159.5 70.5zM705 1614q63 0 63 61q0 62 -63 62q-64 0 -64 -62q0 -61 64 -61z" />
    <glyph glyph-name="AE" unicode="&#xc6;" horiz-adv-x="2142" 
d="M332 395v-405h-205v915q0 105 42.5 202t114 167.5t168.5 113t201 42.5q140 0 262 -71t194.5 -192.5t72.5 -261.5v-915h-205v405h-645zM332 905v-305h645v305q0 135 -93 227.5t-231 92.5q-136 0 -228.5 -92.5t-92.5 -227.5zM2083 195v-205h-1055v1440h1055v-205h-850v-412
h702v-207h-702v-411h850z" />
    <glyph glyph-name="Ccedilla" unicode="&#xc7;" horiz-adv-x="1501" 
d="M883 -10q-139 0 -273.5 54.5t-236.5 156.5q-101 102 -156 234t-55 276q0 141 55.5 273.5t155.5 236.5q103 101 238.5 153.5t272.5 52.5t272 -53t237 -155l73 -74l-145 -144l-72 72q-101 101 -233 136.5t-264.5 0t-233.5 -136.5q-151 -151 -151 -362q0 -214 151 -365
q101 -101 233 -136.5t264.5 0t233.5 136.5l72 72l145 -144l-71 -73q-102 -102 -237 -156.5t-275 -54.5zM821 -328q-86 0 -141 70q-18 15 -18 55l124 90q29 -39 35 -39h4q2 2 2 0t2 -4q0 -2 -2 -2q-8 0 -145 -51l55 277h176l-12 -62q40 -6 78 -74q20 -41 20 -84
q0 -75 -55 -124q-55 -52 -123 -52z" />
    <glyph glyph-name="Egrave" unicode="&#xc8;" 
d="M1217 195v-205h-1055v1440h1055v-205h-850v-412h702v-207h-702v-411h850zM623 1880l239 -309l-135 -109l-195 154l-94 123z" />
    <glyph glyph-name="Eacute" unicode="&#xc9;" 
d="M1217 195v-205h-1055v1440h1055v-205h-850v-412h702v-207h-702v-411h850zM791 1880l184 -141l-94 -123l-195 -154l-137 109z" />
    <glyph glyph-name="Ecircumflex" unicode="&#xca;" 
d="M1217 195v-205h-1055v1440h1055v-205h-850v-412h702v-207h-702v-411h850zM643 1853h113q16 -10 116 -129l121 -145l-151 -129q-36 25 -78 78q-71 84 -71 77q0 -2 5 -10l-114 -135h-33l-125 105v32z" />
    <glyph glyph-name="Edieresis" unicode="&#xcb;" 
d="M1217 195v-205h-1055v1440h1055v-205h-850v-412h702v-207h-702v-411h850zM526 1767q51 0 92 -41.5t41 -93.5q0 -51 -41 -92t-92 -41q-52 0 -93.5 41t-41.5 92q0 52 41.5 93.5t93.5 41.5zM881 1767q51 0 92 -41.5t41 -93.5q0 -51 -41 -92t-92 -41q-52 0 -94 41t-42 92
q0 52 41.5 93.5t94.5 41.5z" />
    <glyph glyph-name="Igrave" unicode="&#xcc;" horiz-adv-x="401" 
d="M197 -10h-205v1440h205v-1440zM4 1880l242 -309l-137 -109l-193 154l-94 123z" />
    <glyph glyph-name="Iacute" unicode="&#xcd;" horiz-adv-x="401" 
d="M307 -10h-205v1440h205v-1440zM285 1880l182 -141l-94 -123l-195 -154l-135 109z" />
    <glyph glyph-name="Icircumflex" unicode="&#xce;" horiz-adv-x="401" 
d="M184 -10h-204v1440h204v-1440zM12 1853h115q18 -14 115 -129l123 -145l-152 -129q-36 25 -78 78q-67 77 -70 77q-1 0 5 -10l-115 -135h-33l-125 105v32z" />
    <glyph glyph-name="Idieresis" unicode="&#xcf;" horiz-adv-x="401" 
d="M150 -10h-205v1440h205v-1440zM-139 1767q53 0 94 -41.5t41 -93.5q0 -51 -41.5 -92t-93.5 -41q-51 0 -92 41t-41 92q0 52 41 93.5t92 41.5zM215 1767q53 0 94 -41.5t41 -93.5q0 -51 -41.5 -92t-93.5 -41q-51 0 -92 41t-41 92q0 52 41 93.5t92 41.5z" />
    <glyph glyph-name="Eth" unicode="&#xd0;" horiz-adv-x="1361" 
d="M981 711q0 -145 -58 -278t-155.5 -230t-230.5 -155t-277 -58h-444v1440h444q145 0 278 -58t230 -154.5t155 -229.5t58 -277zM20 1225v-1030h240q217 0 365.5 149t148.5 367q0 107 -40 202t-108.5 163.5t-163.5 108.5t-202 40h-240zM571 854v-207h-1101v207h1101z" />
    <glyph glyph-name="Ntilde" unicode="&#xd1;" 
d="M1217 1430v-1440h-158l-692 1007v-1007h-205v1440h155l695 -1008v1008h205zM752 1739l14 -13q11 -7 27 -4q11 3 19.5 13t39.5 57l168 -113q-91 -133 -186 -153q-44 -9 -93.5 1t-89.5 36l-14 12q-11 7 -27 4q-11 -2 -19 -11.5t-40 -58.5l-168 113q92 134 186 154
q44 9 93.5 -1t89.5 -36z" />
    <glyph glyph-name="Ograve" unicode="&#xd2;" horiz-adv-x="1640" 
d="M883 1430q145 0 279 -58t231 -154.5t155 -229.5t58 -277q0 -145 -58 -278t-155 -230t-231 -155t-279 -58t-278 58t-230 155t-155 230t-58 278q0 144 58 277t155 229.5t230 154.5t278 58zM883 195q144 0 263 68t187 186.5t68 261.5q0 217 -149.5 365.5t-368.5 148.5
q-142 0 -260.5 -67.5t-187 -186t-68.5 -260.5q0 -143 68.5 -261.5t187 -186.5t260.5 -68zM827 1880l240 -309l-135 -109l-195 154l-94 123z" />
    <glyph glyph-name="Oacute" unicode="&#xd3;" horiz-adv-x="1640" 
d="M883 1430q145 0 279 -58t231 -154.5t155 -229.5t58 -277q0 -145 -58 -278t-155 -230t-231 -155t-279 -58t-278 58t-230 155t-155 230t-58 278q0 144 58 277t155 229.5t230 154.5t278 58zM883 195q144 0 263 68t187 186.5t68 261.5q0 217 -149.5 365.5t-368.5 148.5
q-142 0 -260.5 -67.5t-187 -186t-68.5 -260.5q0 -143 68.5 -261.5t187 -186.5t260.5 -68zM995 1880l185 -141l-95 -123l-194 -154l-137 109z" />
    <glyph glyph-name="Ocircumflex" unicode="&#xd4;" horiz-adv-x="1640" 
d="M883 1430q145 0 279 -58t231 -154.5t155 -229.5t58 -277q0 -145 -58 -278t-155 -230t-231 -155t-279 -58t-278 58t-230 155t-155 230t-58 278q0 144 58 277t155 229.5t230 154.5t278 58zM883 195q144 0 263 68t187 186.5t68 261.5q0 217 -149.5 365.5t-368.5 148.5
q-142 0 -260.5 -67.5t-187 -186t-68.5 -260.5q0 -143 68.5 -261.5t187 -186.5t260.5 -68zM848 1853h113q16 -10 116 -129l121 -145l-151 -129q-36 25 -78 78q-71 84 -71 77q0 -2 5 -10l-115 -135h-32l-125 105v32z" />
    <glyph glyph-name="Otilde" unicode="&#xd5;" horiz-adv-x="1640" 
d="M883 1430q145 0 279 -58t231 -154.5t155 -229.5t58 -277q0 -145 -58 -278t-155 -230t-231 -155t-279 -58t-278 58t-230 155t-155 230t-58 278q0 144 58 277t155 229.5t230 154.5t278 58zM883 195q144 0 263 68t187 186.5t68 261.5q0 217 -149.5 365.5t-368.5 148.5
q-142 0 -260.5 -67.5t-187 -186t-68.5 -260.5q0 -143 68.5 -261.5t187 -186.5t260.5 -68zM956 1739l15 -13q11 -7 26 -4q8 2 12.5 5.5t15.5 17.5t32 47l168 -113q-91 -133 -187 -153q-44 -9 -93 1t-89 36l-14 12q-11 7 -27 4q-11 -2 -19 -11.5t-40 -58.5l-168 113
q92 134 186 154q44 9 93 -1t89 -36z" />
    <glyph glyph-name="Odieresis" unicode="&#xd6;" horiz-adv-x="1640" 
d="M883 1430q145 0 279 -58t231 -154.5t155 -229.5t58 -277q0 -145 -58 -278t-155 -230t-231 -155t-279 -58t-278 58t-230 155t-155 230t-58 278q0 144 58 277t155 229.5t230 154.5t278 58zM883 195q144 0 263 68t187 186.5t68 261.5q0 217 -149.5 365.5t-368.5 148.5
q-142 0 -260.5 -67.5t-187 -186t-68.5 -260.5q0 -143 68.5 -261.5t187 -186.5t260.5 -68zM731 1767q51 0 92 -41.5t41 -93.5q0 -51 -41 -92t-92 -41q-52 0 -93.5 41t-41.5 92q0 52 41 93.5t94 41.5zM1085 1767q51 0 92.5 -41.5t41.5 -93.5q0 -51 -41.5 -92t-92.5 -41
q-52 0 -93.5 41t-41.5 92q0 52 41 93.5t94 41.5z" />
    <glyph glyph-name="multiply" unicode="&#xd7;" horiz-adv-x="1343" 
d="M997 807l281 -303l-154 -131l-268 284l-289 -303l-151 140l301 313l-285 311l154 133l270 -293l272 293l156 -133z" />
    <glyph glyph-name="Oslash" unicode="&#xd8;" horiz-adv-x="1640" 
d="M883 1430q145 0 279 -58t231 -154.5t155 -229.5t58 -277q0 -145 -58 -278t-155 -230t-231 -155t-279 -58t-278 58t-230 155t-155 230t-58 278q0 144 58 277t155 229.5t230 154.5t278 58zM883 195q144 0 263 68t187 186.5t68 261.5q0 217 -149.5 365.5t-368.5 148.5
q-142 0 -260.5 -67.5t-187 -186t-68.5 -260.5q0 -143 68.5 -261.5t187 -186.5t260.5 -68zM1292 1321l-594 -1307l-188 84l596 1307z" />
    <glyph glyph-name="Ugrave" unicode="&#xd9;" 
d="M1012 516v914h205v-914q0 -141 -72.5 -262.5t-194.5 -192.5t-262 -71q-139 0 -260.5 71t-193.5 192.5t-72 262.5v914h205v-914q0 -136 92.5 -228.5t228.5 -92.5q138 0 231 92t93 229zM623 1880l239 -309l-135 -109l-195 154l-94 123z" />
    <glyph glyph-name="Uacute" unicode="&#xda;" 
d="M1012 516v914h205v-914q0 -141 -72.5 -262.5t-194.5 -192.5t-262 -71q-139 0 -260.5 71t-193.5 192.5t-72 262.5v914h205v-914q0 -136 92.5 -228.5t228.5 -92.5q138 0 231 92t93 229zM791 1880l184 -141l-94 -123l-195 -154l-137 109z" />
    <glyph glyph-name="Ucircumflex" unicode="&#xdb;" 
d="M1012 516v914h205v-914q0 -141 -72.5 -262.5t-194.5 -192.5t-262 -71q-139 0 -260.5 71t-193.5 192.5t-72 262.5v914h205v-914q0 -136 92.5 -228.5t228.5 -92.5q138 0 231 92t93 229zM643 1853h113q16 -10 116 -129l121 -145l-151 -129q-36 25 -78 78q-71 84 -71 77
q0 -2 5 -10l-114 -135h-33l-125 105v32z" />
    <glyph glyph-name="Udieresis" unicode="&#xdc;" 
d="M1012 516v914h205v-914q0 -141 -72.5 -262.5t-194.5 -192.5t-262 -71q-139 0 -260.5 71t-193.5 192.5t-72 262.5v914h205v-914q0 -136 92.5 -228.5t228.5 -92.5q138 0 231 92t93 229zM526 1767q51 0 92 -41.5t41 -93.5q0 -51 -41 -92t-92 -41q-52 0 -93.5 41t-41.5 92
q0 52 41.5 93.5t93.5 41.5zM881 1767q51 0 92 -41.5t41 -93.5q0 -51 -41 -92t-92 -41q-52 0 -94 41t-42 92q0 52 41.5 93.5t94.5 41.5z" />
    <glyph glyph-name="Yacute" unicode="&#xdd;" 
d="M1012 977v453h205v-453q0 -96 -35.5 -187t-94 -159.5t-136 -114.5t-158.5 -57v-469h-207v469q-81 11 -158.5 57t-136 114.5t-94 159.5t-35.5 187v453h205v-453q0 -136 92 -228t229 -92q138 0 231 92t93 228zM791 1880l184 -141l-94 -123l-195 -154l-137 109z" />
    <glyph glyph-name="Thorn" unicode="&#xde;" 
d="M1217 782q0 -119 -61 -222.5t-164.5 -164.5t-223.5 -61h-401v-545h-205v1440h606q119 0 222.5 -61t165 -164t61.5 -222zM768 541q106 0 175 68.5t69 172.5t-69 173t-175 69h-401v-483h401zM367 -10h-205v1440h205v-1440z" />
    <glyph glyph-name="germandbls" unicode="&#xdf;" horiz-adv-x="1314" 
d="M676 1456h12q202 0 330 -98q100 -87 100 -217q0 -136 -112 -277q-52 -79 -52 -106v-6q0 -40 127 -101q82 -46 154 -116q102 -105 102 -220v-18q0 -114 -106 -223q-134 -119 -301 -119h-2q-233 0 -383 240l-10 36l167 101q109 -168 228 -168q95 0 164 69q34 37 34 66v12
q0 82 -217 193q-168 106 -168 246v8q0 112 134 284q32 51 32 99q0 85 -186 106h-39h-6q-150 0 -199 -110q-12 -24 -12 -33v-1088l-25 -26h-157l-27 26v1094q0 67 64 176q124 170 354 170z" />
    <glyph glyph-name="agrave" unicode="&#xe0;" horiz-adv-x="1134" 
d="M631 926q125 0 233 -64t172 -172t64 -233v-467h-205v69q-18 -18 -100 -43.5t-164 -25.5q-190 0 -329.5 139t-139.5 328q0 125 64 233t172 172t233 64zM895 440v17q0 114 -75 188t-189 74t-189 -74t-75 -188q0 -113 75 -187.5t189 -74.5q75 0 135.5 36.5t95.5 102.5l53 92
zM561 1350l240 -310l-135 -108l-195 153l-94 123z" />
    <glyph glyph-name="aacute" unicode="&#xe1;" horiz-adv-x="1134" 
d="M631 926q125 0 233 -64t172 -172t64 -233v-467h-205v69q-18 -18 -100 -43.5t-164 -25.5q-190 0 -329.5 139t-139.5 328q0 125 64 233t172 172t233 64zM895 440v17q0 114 -75 188t-189 74t-189 -74t-75 -188q0 -113 75 -187.5t189 -74.5q75 0 135.5 36.5t95.5 102.5l53 92
zM729 1350l184 -142l-94 -123l-194 -153l-138 108z" />
    <glyph glyph-name="acircumflex" unicode="&#xe2;" horiz-adv-x="1134" 
d="M631 926q125 0 233 -64t172 -172t64 -233v-467h-205v69q-18 -18 -100 -43.5t-164 -25.5q-190 0 -329.5 139t-139.5 328q0 125 64 233t172 172t233 64zM895 440v17q0 114 -75 188t-189 74t-189 -74t-75 -188q0 -113 75 -187.5t189 -74.5q75 0 135.5 36.5t95.5 102.5l53 92
zM582 1323h112q18 -12 117 -129l121 -145l-152 -129q-38 27 -78 77q-80 95 -69 74q2 -2 4 -6l-115 -135h-33l-124 104v33z" />
    <glyph glyph-name="atilde" unicode="&#xe3;" horiz-adv-x="1134" 
d="M631 926q125 0 233 -64t172 -172t64 -233v-467h-205v69q-18 -18 -100 -43.5t-164 -25.5q-190 0 -329.5 139t-139.5 328q0 125 64 233t172 172t233 64zM895 440v17q0 114 -75 188t-189 74t-189 -74t-75 -188q0 -113 75 -187.5t189 -74.5q75 0 135.5 36.5t95.5 102.5l53 92
zM690 1208l15 -12q11 -7 26 -4q8 2 12.5 5.5t15.5 17.5t32 47l167 -113q-92 -134 -186 -154q-44 -9 -93 1t-89 36l-15 12q-12 7 -26 5q-11 -2 -20 -12t-40 -58l-167 113q91 133 186 153q44 9 93 -1t89 -36z" />
    <glyph glyph-name="adieresis" unicode="&#xe4;" horiz-adv-x="1134" 
d="M631 926q125 0 233 -64t172 -172t64 -233v-467h-205v69q-18 -18 -100 -43.5t-164 -25.5q-190 0 -329.5 139t-139.5 328q0 125 64 233t172 172t233 64zM895 440v17q0 114 -75 188t-189 74t-189 -74t-75 -188q0 -113 75 -187.5t189 -74.5q75 0 135.5 36.5t95.5 102.5l53 92
zM465 1237q51 0 92 -41.5t41 -93.5q0 -51 -41 -92t-92 -41q-52 0 -93.5 41t-41.5 92q0 52 41 93.5t94 41.5zM819 1237q51 0 92 -41.5t41 -93.5q0 -51 -41 -92t-92 -41q-52 0 -93.5 41t-41.5 92q0 52 41 93.5t94 41.5z" />
    <glyph glyph-name="aring" unicode="&#xe5;" horiz-adv-x="1134" 
d="M631 926q125 0 233 -64t172 -172t64 -233v-467h-205v69q-18 -18 -100 -43.5t-164 -25.5q-190 0 -329.5 139t-139.5 328q0 125 64 233t172 172t233 64zM895 440v17q0 114 -75 188t-189 74t-189 -74t-75 -188q0 -113 75 -187.5t189 -74.5q75 0 135.5 36.5t95.5 102.5l53 92
zM643 1374q89 0 159 -70t70 -159q0 -88 -70 -159t-159 -71t-159 71t-70 159q0 89 70 159t159 70zM643 1083q64 0 64 62q0 61 -64 61q-63 0 -63 -61q0 -62 63 -62z" />
    <glyph glyph-name="ae" unicode="&#xe6;" horiz-adv-x="1871" 
d="M596 926q125 0 233 -64t172 -172t64 -233v-467h-205v69q-18 -18 -100 -43.5t-164 -25.5q-190 0 -329.5 139t-139.5 328q0 125 64 233t172 172t233 64zM860 440v17q0 114 -75 188t-189 74t-189 -74t-75 -188q0 -113 75 -187.5t189 -74.5q75 0 135.5 36.5t95.5 102.5l54 92
zM1702 139q-49 -52 -94 -78q-115 -71 -242 -71q-188 0 -330 139q-139 139 -139 328q0 190 139 329q143 140 330 140q190 0 330 -140q139 -136 139 -329v-101h-717q15 -61 82 -110q66 -51 166 -51q74 0 139 41q30 20 54 47zM1118 559h496q-12 59 -82 111q-67 49 -166 49
t-166 -49t-82 -111z" />
    <glyph glyph-name="ccedilla" unicode="&#xe7;" horiz-adv-x="1126" 
d="M862 334l182 -98q-61 -112 -174 -179t-239 -67q-190 0 -329.5 139t-139.5 328q0 125 64 233t172 172t233 64q127 0 239 -67.5t174 -178.5l-182 -98q-35 66 -95.5 101.5t-135.5 35.5q-114 0 -189 -74t-75 -188q0 -113 75 -187.5t189 -74.5q75 0 135.5 36.5t95.5 102.5z
M625 -328q-85 0 -140 70q-18 15 -18 55l123 90q29 -39 35 -39h6q0 -1 1 -2t1 -2v-2q-8 0 -148 -51l56 277h178l-14 -62q39 -5 77 -74q23 -48 23 -84q0 -75 -55 -124q-58 -52 -125 -52z" />
    <glyph glyph-name="egrave" unicode="&#xe8;" horiz-adv-x="1134" 
d="M967 139q-44 -47 -95 -78q-115 -71 -241 -71q-191 0 -330 139t-139 328q0 190 139 329q140 140 330 140t330 -140q139 -139 139 -329v-101h-717q15 -61 82 -110q66 -51 166 -51q74 0 139 41q28 18 53 47zM383 559h496q-15 62 -82 111t-166 49t-166 -49t-82 -111z
M561 1350l240 -310l-135 -108l-195 153l-94 123z" />
    <glyph glyph-name="eacute" unicode="&#xe9;" horiz-adv-x="1134" 
d="M967 139q-44 -47 -95 -78q-115 -71 -241 -71q-191 0 -330 139t-139 328q0 190 139 329q140 140 330 140t330 -140q139 -139 139 -329v-101h-717q15 -61 82 -110q66 -51 166 -51q74 0 139 41q28 18 53 47zM383 559h496q-15 62 -82 111t-166 49t-166 -49t-82 -111z
M729 1350l184 -142l-94 -123l-194 -153l-138 108z" />
    <glyph glyph-name="ecircumflex" unicode="&#xea;" horiz-adv-x="1134" 
d="M967 139q-44 -47 -95 -78q-115 -71 -241 -71q-191 0 -330 139t-139 328q0 190 139 329q140 140 330 140t330 -140q139 -139 139 -329v-101h-717q15 -61 82 -110q66 -51 166 -51q74 0 139 41q28 18 53 47zM383 559h496q-15 62 -82 111t-166 49t-166 -49t-82 -111z
M582 1323h112q18 -12 117 -129l121 -145l-152 -129q-38 27 -78 77q-80 95 -69 74q2 -2 4 -6l-115 -135h-33l-124 104v33z" />
    <glyph glyph-name="edieresis" unicode="&#xeb;" horiz-adv-x="1134" 
d="M967 139q-44 -47 -95 -78q-115 -71 -241 -71q-191 0 -330 139t-139 328q0 190 139 329q140 140 330 140t330 -140q139 -139 139 -329v-101h-717q15 -61 82 -110q66 -51 166 -51q74 0 139 41q28 18 53 47zM383 559h496q-15 62 -82 111t-166 49t-166 -49t-82 -111z
M465 1237q51 0 92 -41.5t41 -93.5q0 -51 -41 -92t-92 -41q-52 0 -93.5 41t-41.5 92q0 52 41 93.5t94 41.5zM819 1237q51 0 92 -41.5t41 -93.5q0 -51 -41 -92t-92 -41q-52 0 -93.5 41t-41.5 92q0 52 41 93.5t94 41.5z" />
    <glyph glyph-name="igrave" unicode="&#xec;" horiz-adv-x="464" 
d="M262 -10h-207v936h207v-936zM70 1350l239 -310l-135 -108l-194 153l-95 123z" />
    <glyph glyph-name="iacute" unicode="&#xed;" horiz-adv-x="464" 
d="M373 -10h-207v936h207v-936zM348 1350l184 -142l-94 -123l-194 -153l-138 108z" />
    <glyph glyph-name="ntilde" unicode="&#xf1;" horiz-adv-x="1134" 
d="M631 926q125 0 233 -64t172 -172t64 -233v-467h-205v467q0 114 -75 188t-189 74t-189 -74t-75 -188v-467h-205v467q0 125 64 233t172 172t233 64zM690 1208l15 -12q11 -7 26 -4q8 2 12.5 5.5t15.5 17.5t32 47l167 -113q-92 -134 -186 -154q-44 -9 -93 1t-89 36l-15 12
q-12 7 -26 5q-11 -2 -20 -12t-40 -58l-167 113q91 133 186 153q44 9 93 -1t89 -36z" />
    <glyph glyph-name="ograve" unicode="&#xf2;" horiz-adv-x="1134" 
d="M631 926q125 0 233 -64t172 -172t64 -233q0 -189 -139.5 -328t-329.5 -139t-329.5 139t-139.5 328q0 125 64 233t172 172t233 64zM631 195q114 0 189 74.5t75 187.5q0 114 -75 188t-189 74t-189 -74t-75 -188q0 -113 75 -187.5t189 -74.5zM561 1350l240 -310l-135 -108
l-195 153l-94 123z" />
    <glyph glyph-name="oacute" unicode="&#xf3;" horiz-adv-x="1134" 
d="M631 926q125 0 233 -64t172 -172t64 -233q0 -189 -139.5 -328t-329.5 -139t-329.5 139t-139.5 328q0 125 64 233t172 172t233 64zM631 195q114 0 189 74.5t75 187.5q0 114 -75 188t-189 74t-189 -74t-75 -188q0 -113 75 -187.5t189 -74.5zM729 1350l184 -142l-94 -123
l-194 -153l-138 108z" />
    <glyph glyph-name="ocircumflex" unicode="&#xf4;" horiz-adv-x="1134" 
d="M631 926q125 0 233 -64t172 -172t64 -233q0 -189 -139.5 -328t-329.5 -139t-329.5 139t-139.5 328q0 125 64 233t172 172t233 64zM631 195q114 0 189 74.5t75 187.5q0 114 -75 188t-189 74t-189 -74t-75 -188q0 -113 75 -187.5t189 -74.5zM582 1323h112q18 -12 117 -129
l121 -145l-152 -129q-38 27 -78 77q-80 95 -69 74q2 -2 4 -6l-115 -135h-33l-124 104v33z" />
    <glyph glyph-name="otilde" unicode="&#xf5;" horiz-adv-x="1134" 
d="M631 926q125 0 233 -64t172 -172t64 -233q0 -189 -139.5 -328t-329.5 -139t-329.5 139t-139.5 328q0 125 64 233t172 172t233 64zM631 195q114 0 189 74.5t75 187.5q0 114 -75 188t-189 74t-189 -74t-75 -188q0 -113 75 -187.5t189 -74.5zM690 1208l15 -12q11 -7 26 -4
q8 2 12.5 5.5t15.5 17.5t32 47l167 -113q-92 -134 -186 -154q-44 -9 -93 1t-89 36l-15 12q-12 7 -26 5q-11 -2 -20 -12t-40 -58l-167 113q91 133 186 153q44 9 93 -1t89 -36z" />
    <glyph glyph-name="odieresis" unicode="&#xf6;" horiz-adv-x="1134" 
d="M631 926q125 0 233 -64t172 -172t64 -233q0 -189 -139.5 -328t-329.5 -139t-329.5 139t-139.5 328q0 125 64 233t172 172t233 64zM631 195q114 0 189 74.5t75 187.5q0 114 -75 188t-189 74t-189 -74t-75 -188q0 -113 75 -187.5t189 -74.5zM465 1237q51 0 92 -41.5
t41 -93.5q0 -51 -41 -92t-92 -41q-52 0 -93.5 41t-41.5 92q0 52 41 93.5t94 41.5zM819 1237q51 0 92 -41.5t41 -93.5q0 -51 -41 -92t-92 -41q-52 0 -93.5 41t-41.5 92q0 52 41 93.5t94 41.5z" />
    <glyph glyph-name="divide" unicode="&#xf7;" horiz-adv-x="921" 
d="M893 635v-205h-797v205h797zM489 338q51 0 92.5 -41t41.5 -92q0 -52 -41.5 -93.5t-92.5 -41.5q-53 0 -94 41t-41 94q0 51 41.5 92t93.5 41zM489 1006q51 0 92.5 -42t41.5 -94q0 -51 -41.5 -92t-92.5 -41q-52 0 -93.5 41t-41.5 92q0 53 41.5 94.5t93.5 41.5z" />
    <glyph glyph-name="oslash" unicode="&#xf8;" horiz-adv-x="1134" 
d="M631 926q125 0 233 -64t172 -172t64 -233q0 -189 -139.5 -328t-329.5 -139t-329.5 139t-139.5 328q0 125 64 233t172 172t233 64zM631 195q114 0 189 74.5t75 187.5q0 114 -75 188t-189 74t-189 -74t-75 -188q0 -113 75 -187.5t189 -74.5zM1026 1055l-594 -1307l-188 86
l596 1307z" />
    <glyph glyph-name="ugrave" unicode="&#xf9;" horiz-adv-x="1134" 
d="M895 926h205v-469q0 -189 -139.5 -328t-329.5 -139t-329.5 139t-139.5 328v469h205v-469q0 -113 75 -187.5t189 -74.5t189 74.5t75 187.5v469zM561 1350l240 -310l-135 -108l-195 153l-94 123z" />
    <glyph glyph-name="uacute" unicode="&#xfa;" horiz-adv-x="1134" 
d="M895 926h205v-469q0 -189 -139.5 -328t-329.5 -139t-329.5 139t-139.5 328v469h205v-469q0 -113 75 -187.5t189 -74.5t189 74.5t75 187.5v469zM729 1350l184 -142l-94 -123l-194 -153l-138 108z" />
    <glyph glyph-name="ucircumflex" unicode="&#xfb;" horiz-adv-x="1134" 
d="M895 926h205v-469q0 -189 -139.5 -328t-329.5 -139t-329.5 139t-139.5 328v469h205v-469q0 -113 75 -187.5t189 -74.5t189 74.5t75 187.5v469zM582 1323h112q18 -12 117 -129l121 -145l-152 -129q-38 27 -78 77q-80 95 -69 74q2 -2 4 -6l-115 -135h-33l-124 104v33z" />
    <glyph glyph-name="udieresis" unicode="&#xfc;" horiz-adv-x="1134" 
d="M895 926h205v-469q0 -189 -139.5 -328t-329.5 -139t-329.5 139t-139.5 328v469h205v-469q0 -113 75 -187.5t189 -74.5t189 74.5t75 187.5v469zM465 1237q51 0 92 -41.5t41 -93.5q0 -51 -41 -92t-92 -41q-52 0 -93.5 41t-41.5 92q0 52 41 93.5t94 41.5zM819 1237
q51 0 92 -41.5t41 -93.5q0 -51 -41 -92t-92 -41q-52 0 -93.5 41t-41.5 92q0 52 41 93.5t94 41.5z" />
    <glyph glyph-name="yacute" unicode="&#xfd;" horiz-adv-x="1134" 
d="M893 926h207v-973q0 -189 -139.5 -328t-329.5 -139q-128 0 -240.5 67t-173.5 179l-47 92l178 96l49 -90q37 -66 98 -102.5t136 -36.5q114 0 188 74.5t74 187.5v104q-17 -17 -99 -42t-163 -25q-190 0 -329.5 139t-139.5 328v469h205v-469q0 -113 75 -187.5t189 -74.5
q75 0 135.5 36.5t95.5 102.5l49 94l-18 12v486zM729 1350l184 -142l-94 -123l-194 -153l-138 108z" />
    <glyph glyph-name="thorn" unicode="&#xfe;" horiz-adv-x="1134" 
d="M631 926q197 0 332 -138q137 -134 137 -331q0 -196 -137 -330q-134 -137 -332 -137q-188 0 -264 73v-577h-205v971q0 197 137 331q138 138 332 138zM631 195q111 0 186 75q76 76 76 187q0 110 -76 186t-186 76q-111 0 -187 -76q-77 -74 -77 -186v-17l-21 -14l51 -92
q89 -139 234 -139zM240 303l49 -12v1061h-49v-1049z" />
    <glyph glyph-name="ydieresis" unicode="&#xff;" horiz-adv-x="1134" 
d="M893 926h207v-973q0 -189 -139.5 -328t-329.5 -139q-128 0 -240.5 67t-173.5 179l-47 92l178 96l49 -90q37 -66 98 -102.5t136 -36.5q114 0 188 74.5t74 187.5v104q-17 -17 -99 -42t-163 -25q-190 0 -329.5 139t-139.5 328v469h205v-469q0 -113 75 -187.5t189 -74.5
q75 0 135.5 36.5t95.5 102.5l49 94l-18 12v486zM465 1237q51 0 92 -41.5t41 -93.5q0 -51 -41 -92t-92 -41q-52 0 -93.5 41t-41.5 92q0 52 41 93.5t94 41.5zM819 1237q51 0 92 -41.5t41 -93.5q0 -51 -41 -92t-92 -41q-52 0 -93.5 41t-41.5 92q0 52 41 93.5t94 41.5z" />
    <glyph glyph-name="Amacron" unicode="&#x100;" 
d="M367 395v-405h-205v915q0 105 42.5 202t114 167.5t168.5 113t201 42.5q140 0 262 -71t194.5 -192.5t72.5 -261.5v-915h-205v405h-645zM367 905v-305h645v305q0 135 -93 227.5t-231 92.5q-136 0 -228.5 -92.5t-92.5 -227.5zM420 1532v194h565v-194h-565z" />
    <glyph glyph-name="amacron" unicode="&#x101;" horiz-adv-x="1134" 
d="M631 926q125 0 233 -64t172 -172t64 -233v-467h-205v69q-18 -18 -100 -43.5t-164 -25.5q-190 0 -329.5 139t-139.5 328q0 125 64 233t172 172t233 64zM895 440v17q0 114 -75 188t-189 74t-189 -74t-75 -188q0 -113 75 -187.5t189 -74.5q75 0 135.5 36.5t95.5 102.5l53 92
zM358 1001v195h566v-195h-566z" />
    <glyph glyph-name="Abreve" unicode="&#x102;" 
d="M367 395v-405h-205v915q0 105 42.5 202t114 167.5t168.5 113t201 42.5q140 0 262 -71t194.5 -192.5t72.5 -261.5v-915h-205v405h-645zM367 905v-305h645v305q0 135 -93 227.5t-231 92.5q-136 0 -228.5 -92.5t-92.5 -227.5zM614 1964v-66q0 -40 25 -65q26 -23 63 -23
q40 0 66 23q25 25 25 65v66h184v-66q0 -112 -82 -194q-80 -80 -193 -80q-109 0 -192 80q-82 82 -82 194v66h186z" />
    <glyph glyph-name="abreve" unicode="&#x103;" horiz-adv-x="1134" 
d="M631 926q125 0 233 -64t172 -172t64 -233v-467h-205v69q-18 -18 -100 -43.5t-164 -25.5q-190 0 -329.5 139t-139.5 328q0 125 64 233t172 172t233 64zM895 440v17q0 114 -75 188t-189 74t-189 -74t-75 -188q0 -113 75 -187.5t189 -74.5q75 0 135.5 36.5t95.5 102.5l53 92
zM553 1434v-66q0 -40 25 -65q26 -23 63 -23q40 0 66 23q24 24 24 65v66h184v-66q0 -113 -81 -194q-80 -80 -193 -80q-109 0 -192 80q-82 82 -82 194v66h186z" />
    <glyph glyph-name="Aogonek" unicode="&#x104;" 
d="M367 395v-405h-205v915q0 105 42.5 202t114 167.5t168.5 113t201 42.5q140 0 262 -71t194.5 -192.5t72.5 -261.5v-915h-205v405h-645zM367 905v-305h645v305q0 135 -93 227.5t-231 92.5q-136 0 -228.5 -92.5t-92.5 -227.5zM1206 -375q-245 0 -245 205q0 110 108 254
l164 -8q-86 -145 -86 -195q0 -55 102 -55h47l-10 -197z" />
    <glyph glyph-name="aogonek" unicode="&#x105;" horiz-adv-x="1134" 
d="M631 926q125 0 233 -64t172 -172t64 -233v-467h-205v69q-18 -18 -100 -43.5t-164 -25.5q-190 0 -329.5 139t-139.5 328q0 125 64 233t172 172t233 64zM895 440v17q0 114 -75 188t-189 74t-189 -74t-75 -188q0 -113 75 -187.5t189 -74.5q75 0 135.5 36.5t95.5 102.5l53 92
zM1102 -375q-244 0 -244 205q0 111 107 254l163 -8q-86 -145 -86 -195q0 -55 103 -55h47l-8 -197z" />
    <glyph glyph-name="Cacute" unicode="&#x106;" horiz-adv-x="1501" 
d="M883 -10q-139 0 -273.5 54.5t-236.5 156.5q-101 102 -156 234t-55 276q0 141 55.5 273.5t155.5 236.5q103 101 238.5 153.5t272.5 52.5t272 -53t237 -155l73 -74l-145 -144l-72 72q-101 101 -233 136.5t-264.5 0t-233.5 -136.5q-151 -151 -151 -362q0 -214 151 -365
q101 -101 233 -136.5t264.5 0t233.5 136.5l72 72l145 -144l-71 -73q-102 -102 -237 -156.5t-275 -54.5zM913 1880l185 -141l-94 -123l-195 -154l-137 109z" />
    <glyph glyph-name="cacute" unicode="&#x107;" horiz-adv-x="1126" 
d="M862 334l182 -98q-61 -112 -174 -179t-239 -67q-190 0 -329.5 139t-139.5 328q0 125 64 233t172 172t233 64q127 0 239 -67.5t174 -178.5l-182 -98q-35 66 -95.5 101.5t-135.5 35.5q-114 0 -189 -74t-75 -188q0 -113 75 -187.5t189 -74.5q75 0 135.5 36.5t95.5 102.5z
M719 1350l182 -142l-94 -123l-195 -153l-135 108z" />
    <glyph glyph-name="Ccircumflex" unicode="&#x108;" horiz-adv-x="1501" 
d="M883 -10q-139 0 -273.5 54.5t-236.5 156.5q-101 102 -156 234t-55 276q0 141 55.5 273.5t155.5 236.5q103 101 238.5 153.5t272.5 52.5t272 -53t237 -155l73 -74l-145 -144l-72 72q-101 101 -233 136.5t-264.5 0t-233.5 -136.5q-151 -151 -151 -362q0 -214 151 -365
q101 -101 233 -136.5t264.5 0t233.5 136.5l72 72l145 -144l-71 -73q-102 -102 -237 -156.5t-275 -54.5zM766 1853h113q16 -10 116 -129l121 -145l-151 -129q-36 25 -78 78q-71 84 -71 77q0 -2 5 -10l-114 -135h-33l-125 105v32z" />
    <glyph glyph-name="ccircumflex" unicode="&#x109;" horiz-adv-x="1126" 
d="M862 334l182 -98q-61 -112 -174 -179t-239 -67q-190 0 -329.5 139t-139.5 328q0 125 64 233t172 172t233 64q127 0 239 -67.5t174 -178.5l-182 -98q-35 66 -95.5 101.5t-135.5 35.5q-114 0 -189 -74t-75 -188q0 -113 75 -187.5t189 -74.5q75 0 135.5 36.5t95.5 102.5z
M569 1323h115q18 -14 115 -129l123 -145l-152 -129q-38 27 -78 77q-68 78 -70 78q-1 0 5 -10l-115 -135h-33l-125 104v33z" />
    <glyph glyph-name="Cdotaccent" unicode="&#x10a;" horiz-adv-x="1501" 
d="M883 -10q-139 0 -273.5 54.5t-236.5 156.5q-101 102 -156 234t-55 276q0 141 55.5 273.5t155.5 236.5q103 101 238.5 153.5t272.5 52.5t272 -53t237 -155l73 -74l-145 -144l-72 72q-101 101 -233 136.5t-264.5 0t-233.5 -136.5q-151 -151 -151 -362q0 -214 151 -365
q101 -101 233 -136.5t264.5 0t233.5 136.5l72 72l145 -144l-71 -73q-102 -102 -237 -156.5t-275 -54.5zM834 1847q43 0 78.5 -34.5t35.5 -77.5q0 -44 -35.5 -79.5t-78.5 -35.5q-44 0 -79.5 35.5t-35.5 79.5q0 43 35.5 77.5t79.5 34.5z" />
    <glyph glyph-name="cdotaccent" unicode="&#x10b;" horiz-adv-x="1126" 
d="M862 334l182 -98q-61 -112 -174 -179t-239 -67q-190 0 -329.5 139t-139.5 328q0 125 64 233t172 172t233 64q127 0 239 -67.5t174 -178.5l-182 -98q-35 66 -95.5 101.5t-135.5 35.5q-114 0 -189 -74t-75 -188q0 -113 75 -187.5t189 -74.5q75 0 135.5 36.5t95.5 102.5z
M637 1317q44 0 79.5 -35t35.5 -78q0 -44 -35.5 -79t-79.5 -35q-43 0 -78 35t-35 79q0 43 35 78t78 35z" />
    <glyph glyph-name="Ccaron" unicode="&#x10c;" horiz-adv-x="1501" 
d="M883 -10q-139 0 -273.5 54.5t-236.5 156.5q-101 102 -156 234t-55 276q0 141 55.5 273.5t155.5 236.5q103 101 238.5 153.5t272.5 52.5t272 -53t237 -155l73 -74l-145 -144l-72 72q-101 101 -233 136.5t-264.5 0t-233.5 -136.5q-151 -151 -151 -362q0 -214 151 -365
q101 -101 233 -136.5t264.5 0t233.5 136.5l72 72l145 -144l-71 -73q-102 -102 -237 -156.5t-275 -54.5zM543 1714v33l125 106h32l117 -137q-12 -18 4 -2q15 16 60 70q51 60 80 78l149 -127l-121 -148q-100 -119 -117 -127h-112z" />
    <glyph glyph-name="ccaron" unicode="&#x10d;" horiz-adv-x="1126" 
d="M862 334l182 -98q-61 -112 -174 -179t-239 -67q-190 0 -329.5 139t-139.5 328q0 125 64 233t172 172t233 64q127 0 239 -67.5t174 -178.5l-182 -98q-35 66 -95.5 101.5t-135.5 35.5q-114 0 -189 -74t-75 -188q0 -113 75 -187.5t189 -74.5q75 0 135.5 36.5t95.5 102.5z
M348 1184v33l125 106h33l115 -137q-9 -15 -2 -8q15 13 67 75q42 53 78 78l151 -127l-122 -147q-100 -118 -115 -127h-115z" />
    <glyph glyph-name="Dcaron" unicode="&#x10e;" horiz-adv-x="1361" 
d="M1327 711q0 -145 -58 -278t-155.5 -230t-230.5 -155t-277 -58h-444v1440h444q145 0 278 -58t230 -154.5t155 -229.5t58 -277zM367 1225v-1030h239q217 0 365.5 149t148.5 367q0 107 -40 202t-108.5 163.5t-163.5 108.5t-202 40h-239zM479 1714v33l125 106h33l115 -137
q-18 -28 28 24q15 18 37 44q42 53 78 78l152 -127l-123 -148q-100 -118 -115 -127h-115z" />
    <glyph glyph-name="dcaron" unicode="&#x10f;" horiz-adv-x="1517" 
d="M860 1430h205v-973q0 -189 -139.5 -328t-329.5 -139t-329.5 139t-139.5 328q0 125 64 233t172 172t233 64q82 0 163.5 -26.5t100.5 -45.5v576zM860 457v18l21 12l-54 95q-35 66 -95.5 101.5t-135.5 35.5q-114 0 -189 -74t-75 -188q0 -113 75 -187.5t189 -74.5t189 74.5
t75 187.5zM1280 1184q10 -4 10 -2t-10 12l-4 4q-39 39 -39 94q0 53 41 94q39 39 94 39t94 -39t39 -94q0 -31 -12 -59l-90 -234l-170 66z" />
    <glyph glyph-name="Dcroat" unicode="&#x110;" horiz-adv-x="1361" 
d="M981 711q0 -145 -58 -278t-155.5 -230t-230.5 -155t-277 -58h-444v1440h444q145 0 278 -58t230 -154.5t155 -229.5t58 -277zM20 1225v-1030h240q217 0 365.5 149t148.5 367q0 107 -40 202t-108.5 163.5t-163.5 108.5t-202 40h-240zM571 854v-207h-1101v207h1101z" />
    <glyph glyph-name="dcroat" unicode="&#x111;" horiz-adv-x="1134" 
d="M885 1430h205v-973q0 -189 -139.5 -328t-329.5 -139t-329.5 139t-139.5 328q0 125 64 233t172 172t233 64q82 0 163.5 -26.5t100.5 -45.5v576zM885 457v18l20 12l-53 95q-35 66 -95.5 101.5t-135.5 35.5q-114 0 -189.5 -74t-75.5 -188q0 -113 75.5 -187.5t189.5 -74.5
t189 74.5t75 187.5zM1241 1356v-207h-1100v207h1100z" />
    <glyph glyph-name="Emacron" unicode="&#x112;" 
d="M1217 195v-205h-1055v1440h1055v-205h-850v-412h702v-207h-702v-411h850zM420 1532v194h565v-194h-565z" />
    <glyph glyph-name="emacron" unicode="&#x113;" horiz-adv-x="1134" 
d="M967 139q-44 -47 -95 -78q-115 -71 -241 -71q-191 0 -330 139t-139 328q0 190 139 329q140 140 330 140t330 -140q139 -139 139 -329v-101h-717q15 -61 82 -110q66 -51 166 -51q74 0 139 41q28 18 53 47zM383 559h496q-15 62 -82 111t-166 49t-166 -49t-82 -111z
M358 1001v195h566v-195h-566z" />
    <glyph glyph-name="ebreve" unicode="&#x115;" horiz-adv-x="1134" 
d="M967 139q-44 -47 -95 -78q-115 -71 -241 -71q-191 0 -330 139t-139 328q0 190 139 329q140 140 330 140t330 -140q139 -139 139 -329v-101h-717q15 -61 82 -110q66 -51 166 -51q74 0 139 41q28 18 53 47zM383 559h496q-15 62 -82 111t-166 49t-166 -49t-82 -111z
M553 1434v-66q0 -40 25 -65q26 -23 63 -23q40 0 66 23q24 24 24 65v66h184v-66q0 -113 -81 -194q-80 -80 -193 -80q-109 0 -192 80q-82 82 -82 194v66h186z" />
    <glyph glyph-name="Edotaccent" unicode="&#x116;" 
d="M1217 195v-205h-1055v1440h1055v-205h-850v-412h702v-207h-702v-411h850zM711 1847q43 0 78.5 -34.5t35.5 -77.5q0 -44 -35.5 -79.5t-78.5 -35.5q-44 0 -79.5 35.5t-35.5 79.5q0 43 35.5 77.5t79.5 34.5z" />
    <glyph glyph-name="edotaccent" unicode="&#x117;" horiz-adv-x="1134" 
d="M967 139q-44 -47 -95 -78q-115 -71 -241 -71q-191 0 -330 139t-139 328q0 190 139 329q140 140 330 140t330 -140q139 -139 139 -329v-101h-717q15 -61 82 -110q66 -51 166 -51q74 0 139 41q28 18 53 47zM383 559h496q-15 62 -82 111t-166 49t-166 -49t-82 -111z
M649 1317q43 0 79 -35t36 -78q0 -44 -36 -79t-79 -35q-44 0 -79 35t-35 79q0 43 35 78t79 35z" />
    <glyph glyph-name="Eogonek" unicode="&#x118;" 
d="M1217 195v-205h-1055v1440h1055v-205h-850v-412h702v-207h-702v-411h850zM1165 -375q-243 0 -243 205q0 114 108 254l162 -8q-84 -141 -84 -195q0 -55 100 -55h47l-8 -197z" />
    <glyph glyph-name="eogonek" unicode="&#x119;" horiz-adv-x="1134" 
d="M967 139q-44 -47 -95 -78q-115 -71 -241 -71q-191 0 -330 139t-139 328q0 190 139 329q140 140 330 140t330 -140q139 -139 139 -329v-101h-717q15 -61 82 -110q66 -51 166 -51q74 0 139 41q28 18 53 47zM383 559h496q-15 62 -82 111t-166 49t-166 -49t-82 -111z
M858 -375q-244 0 -244 205q0 109 109 254l162 -8q-84 -141 -84 -195q0 -55 100 -55h49l-10 -197z" />
    <glyph glyph-name="Ecaron" unicode="&#x11a;" 
d="M1217 195v-205h-1055v1440h1055v-205h-850v-412h702v-207h-702v-411h850zM420 1714v33l125 106h33l116 -137q-12 -18 4 -2q15 16 60 70q51 60 80 78l149 -127l-121 -148q-101 -120 -116 -127h-113z" />
    <glyph glyph-name="ecaron" unicode="&#x11b;" horiz-adv-x="1134" 
d="M967 139q-44 -47 -95 -78q-115 -71 -241 -71q-191 0 -330 139t-139 328q0 190 139 329q140 140 330 140t330 -140q139 -139 139 -329v-101h-717q15 -61 82 -110q66 -51 166 -51q74 0 139 41q28 18 53 47zM383 559h496q-15 62 -82 111t-166 49t-166 -49t-82 -111z
M358 1184v33l125 106h33l117 -137q-12 -19 4 -2l59 69q51 60 80 78l150 -127l-121 -147q-100 -119 -117 -127h-113z" />
    <glyph glyph-name="Gcircumflex" unicode="&#x11c;" horiz-adv-x="1640" 
d="M780 813h826v-102q0 -142 -55.5 -275t-155.5 -235q-102 -102 -237 -156.5t-275 -54.5q-139 0 -273.5 54.5t-236.5 156.5q-101 102 -156 234t-55 276q0 141 55.5 273.5t155.5 236.5q103 101 238.5 153.5t272.5 52.5t272 -53t237 -155l73 -74l-145 -144l-72 72
q-101 101 -233 136.5t-264.5 0t-233.5 -136.5q-151 -151 -151 -362q0 -214 151 -365q101 -101 233 -136.5t264.5 0t233.5 136.5q60 60 98 131.5t46 128.5h-613v207zM848 1853h113q16 -10 116 -129l121 -145l-151 -129q-36 25 -78 78q-71 84 -71 77q0 -2 5 -10l-115 -135h-32
l-125 105v32z" />
    <glyph glyph-name="gcircumflex" unicode="&#x11d;" horiz-adv-x="1134" 
d="M631 926q125 0 233 -64t172 -172t64 -233v-504q0 -189 -139.5 -328t-329.5 -139q-128 0 -240.5 67t-173.5 179l-47 92l178 96l49 -90q37 -66 98 -102.5t136 -36.5q114 0 189 74.5t75 187.5v108q-18 -18 -100 -44.5t-164 -26.5q-190 0 -329.5 139t-139.5 328q0 125 64 233
t172 172t233 64zM895 430v27q0 114 -75 188t-189 74t-189 -74t-75 -188q0 -113 75 -187.5t189 -74.5q75 0 135.5 36.5t95.5 102.5l47 90zM582 1323h112q18 -12 117 -129l121 -145l-152 -129q-38 27 -78 77q-80 95 -69 74q2 -2 4 -6l-115 -135h-33l-124 104v33z" />
    <glyph glyph-name="Gbreve" unicode="&#x11e;" horiz-adv-x="1640" 
d="M780 813h826v-102q0 -142 -55.5 -275t-155.5 -235q-102 -102 -237 -156.5t-275 -54.5q-139 0 -273.5 54.5t-236.5 156.5q-101 102 -156 234t-55 276q0 141 55.5 273.5t155.5 236.5q103 101 238.5 153.5t272.5 52.5t272 -53t237 -155l73 -74l-145 -144l-72 72
q-101 101 -233 136.5t-264.5 0t-233.5 -136.5q-151 -151 -151 -362q0 -214 151 -365q101 -101 233 -136.5t264.5 0t233.5 136.5q60 60 98 131.5t46 128.5h-613v207zM819 1964v-66q0 -40 25 -65q26 -23 63 -23q40 0 66 23q24 24 24 65v66h185v-66q0 -112 -82 -194
q-80 -80 -193 -80q-109 0 -192 80q-82 82 -82 194v66h186z" />
    <glyph glyph-name="gbreve" unicode="&#x11f;" horiz-adv-x="1134" 
d="M631 926q125 0 233 -64t172 -172t64 -233v-504q0 -189 -139.5 -328t-329.5 -139q-128 0 -240.5 67t-173.5 179l-47 92l178 96l49 -90q37 -66 98 -102.5t136 -36.5q114 0 189 74.5t75 187.5v108q-18 -18 -100 -44.5t-164 -26.5q-190 0 -329.5 139t-139.5 328q0 125 64 233
t172 172t233 64zM895 430v27q0 114 -75 188t-189 74t-189 -74t-75 -188q0 -113 75 -187.5t189 -74.5q75 0 135.5 36.5t95.5 102.5l47 90zM553 1434v-66q0 -40 25 -65q26 -23 63 -23q40 0 66 23q24 24 24 65v66h184v-66q0 -113 -81 -194q-80 -80 -193 -80q-109 0 -192 80
q-82 82 -82 194v66h186z" />
    <glyph glyph-name="Gdotaccent" unicode="&#x120;" horiz-adv-x="1640" 
d="M780 813h826v-102q0 -142 -55.5 -275t-155.5 -235q-102 -102 -237 -156.5t-275 -54.5q-139 0 -273.5 54.5t-236.5 156.5q-101 102 -156 234t-55 276q0 141 55.5 273.5t155.5 236.5q103 101 238.5 153.5t272.5 52.5t272 -53t237 -155l73 -74l-145 -144l-72 72
q-101 101 -233 136.5t-264.5 0t-233.5 -136.5q-151 -151 -151 -362q0 -214 151 -365q101 -101 233 -136.5t264.5 0t233.5 136.5q60 60 98 131.5t46 128.5h-613v207zM915 1847q43 0 79 -34.5t36 -77.5q0 -44 -36 -79.5t-79 -35.5q-44 0 -79 35.5t-35 79.5q0 43 35 77.5
t79 34.5z" />
    <glyph glyph-name="gdotaccent" unicode="&#x121;" horiz-adv-x="1134" 
d="M631 926q125 0 233 -64t172 -172t64 -233v-504q0 -189 -139.5 -328t-329.5 -139q-128 0 -240.5 67t-173.5 179l-47 92l178 96l49 -90q37 -66 98 -102.5t136 -36.5q114 0 189 74.5t75 187.5v108q-18 -18 -100 -44.5t-164 -26.5q-190 0 -329.5 139t-139.5 328q0 125 64 233
t172 172t233 64zM895 430v27q0 114 -75 188t-189 74t-189 -74t-75 -188q0 -113 75 -187.5t189 -74.5q75 0 135.5 36.5t95.5 102.5l47 90zM649 1317q43 0 79 -35t36 -78q0 -44 -36 -79t-79 -35q-44 0 -79 35t-35 79q0 43 35 78t79 35z" />
    <glyph glyph-name="Gcedilla" unicode="&#x122;" horiz-adv-x="1640" 
d="M780 813h826v-102q0 -142 -55.5 -275t-155.5 -235q-102 -102 -237 -156.5t-275 -54.5q-139 0 -273.5 54.5t-236.5 156.5q-101 102 -156 234t-55 276q0 141 55.5 273.5t155.5 236.5q103 101 238.5 153.5t272.5 52.5t272 -53t237 -155l73 -74l-145 -144l-72 72
q-101 101 -233 136.5t-264.5 0t-233.5 -136.5q-151 -151 -151 -362q0 -214 151 -365q101 -101 233 -136.5t264.5 0t233.5 136.5q60 60 98 131.5t46 128.5h-613v207zM852 -412q7 -3 7 -1q0 1 -5 7q-3 3 -4 5q-29 25 -29 65q0 35 29 68q30 26 65 26q39 0 68 -26q27 -30 27 -68
q0 -18 -9 -41l-63 -164l-119 45z" />
    <glyph glyph-name="gcedilla" unicode="&#x123;" horiz-adv-x="1134" 
d="M631 926q125 0 233 -64t172 -172t64 -233v-504q0 -189 -139.5 -328t-329.5 -139q-128 0 -240.5 67t-173.5 179l-47 92l178 96l49 -90q37 -66 98 -102.5t136 -36.5q114 0 189 74.5t75 187.5v108q-18 -18 -100 -44.5t-164 -26.5q-190 0 -329.5 139t-139.5 328q0 125 64 233
t172 172t233 64zM895 430v27q0 114 -75 188t-189 74t-189 -74t-75 -188q0 -113 75 -187.5t189 -74.5q75 0 135.5 36.5t95.5 102.5l47 90zM739 1253q-10 4 -10 2t10 -12l4 -4q39 -39 39 -94q0 -53 -41 -94q-36 -39 -92 -39q-54 0 -96 39q-39 39 -39 94q0 31 12 59l90 234
l170 -66z" />
    <glyph glyph-name="Hcircumflex" unicode="&#x124;" 
d="M367 606v-616h-205v1440h205v-617h645v617h205v-1440h-205v616h-645zM643 1853h113q16 -10 116 -129l121 -145l-151 -129q-36 25 -78 78q-71 84 -71 77q0 -2 5 -10l-114 -135h-33l-125 105v32z" />
    <glyph glyph-name="hcircumflex" unicode="&#x125;" horiz-adv-x="1134" 
d="M471 926q125 0 233 -64t172 -172t64 -233v-467h-205v467q0 114 -75 188t-189 74t-189 -74t-75 -188v-467h-205v1440h205v-576q18 18 99.5 45t164.5 27zM59 1843h113q18 -12 117 -129l121 -145l-150 -129q-23 14 -80 78q-65 79 -68 78q-1 0 5 -11l-117 -135h-33l-125 106
v31z" />
    <glyph glyph-name="Hbar" unicode="&#x126;" 
d="M367 606v-616h-205v1440h205v-617h645v617h205v-1440h-205v616h-645zM1264 1233v-207h-1102v207h1102z" />
    <glyph glyph-name="hbar" unicode="&#x127;" horiz-adv-x="1134" 
d="M416 926q125 0 233 -64t172 -172t64 -233v-467h-205v467q0 114 -75 188t-189 74t-189 -74t-75 -188v-467h-205v1440h205v-576q18 18 99.5 45t164.5 27zM831 1356v-207h-1099v207h1099z" />
    <glyph glyph-name="Itilde" unicode="&#x128;" horiz-adv-x="401" 
d="M141 -10h-204v1440h204v-1440zM78 1739l16 -13q11 -6 27 -4q10 3 17.5 11.5t41.5 58.5l166 -113q-92 -134 -186 -153q-95 -19 -180 37l-17 12q-10 6 -26 4q-10 -1 -18 -10t-42 -60l-166 113q92 135 187 154t180 -37z" />
    <glyph glyph-name="Imacron" unicode="&#x12a;" horiz-adv-x="401" 
d="M176 -10h-205v1440h205v-1440zM-219 1532v194h565v-194h-565z" />
    <glyph glyph-name="imacron" unicode="&#x12b;" horiz-adv-x="464" 
d="M244 -10h-207v936h207v-936zM-152 1001v195h566v-195h-566z" />
    <glyph glyph-name="Iogonek" unicode="&#x12e;" horiz-adv-x="401" 
d="M276 -10h-204v1440h204v-1440zM225 -375q-243 0 -243 205q0 114 108 254l162 -8q-84 -141 -84 -195q0 -55 100 -55h47l-8 -197z" />
    <glyph glyph-name="iogonek" unicode="&#x12f;" horiz-adv-x="464" 
d="M387 -10h-207v907h207v-907zM285 952q-53 0 -94 41t-41 94q0 54 41 94t94 40q52 0 92.5 -40.5t40.5 -93.5q0 -52 -41 -93.5t-92 -41.5zM383 -375q-246 0 -246 205q0 109 109 254l162 -8q-84 -147 -84 -195q0 -55 100 -55h49l-10 -197z" />
    <glyph glyph-name="Idotaccent" unicode="&#x130;" horiz-adv-x="401" 
d="M354 -10h-204v1440h204v-1440zM250 1847q44 0 79.5 -34.5t35.5 -77.5q0 -44 -35.5 -79.5t-79.5 -35.5q-43 0 -78 35.5t-35 79.5q0 43 35 77.5t78 34.5z" />
    <glyph glyph-name="idotless" unicode="&#x131;" horiz-adv-x="464" 
d="M432 -10h-207v936h207v-936z" />
    <glyph glyph-name="IJ" unicode="&#x132;" horiz-adv-x="1124" 
d="M332 -10h-205v1440h205v-1440zM1096 516q0 -141 -72.5 -262.5t-194.5 -192.5t-262 -71h-102v205h102q137 0 229.5 91.5t92.5 229.5v914h207v-914z" />
    <glyph glyph-name="ij" unicode="&#x133;" horiz-adv-x="1161" 
d="M365 -10h-207v907h207v-907zM262 952q-52 0 -93.5 41t-41.5 94q0 54 41 94t94 40q52 0 92.5 -40.5t40.5 -93.5q0 -52 -41 -93.5t-92 -41.5zM543 -47v932h207v-932q0 -93 -38 -179t-101.5 -149t-150 -101t-179.5 -38h-105v205h105q113 0 187.5 74.5t74.5 187.5zM643 952
q-51 0 -92 41.5t-41 93.5q0 53 40.5 93.5t92.5 40.5q53 0 94 -40t41 -94q0 -53 -41 -94t-94 -41z" />
    <glyph glyph-name="Jcircumflex" unicode="&#x134;" horiz-adv-x="827" 
d="M793 516q0 -141 -72.5 -262.5t-194.5 -192.5t-262 -71h-102v205h102q137 0 229.5 91.5t92.5 229.5v914h207v-914zM420 1853h112q18 -12 117 -129l121 -145l-152 -129q-34 24 -77 78q-71 84 -71 77q0 -2 5 -10l-115 -135h-32l-125 105v32z" />
    <glyph glyph-name="Kcedilla" unicode="&#x136;" horiz-adv-x="1294" 
d="M805 606h-287l-151 -147v-469h-205v1440h205v-682l749 725l144 -148l-529 -512h74q166 0 289 -123.5t123 -290.5v-409h-205v409q0 90 -58.5 148.5t-148.5 58.5zM662 -412q6 -2 7 -1.5t-5 6.5q-3 4 -5 6q-28 25 -28 65q0 37 28 68q30 26 66 26q39 0 68 -26q26 -29 26 -68
q0 -21 -8 -41l-63 -164l-119 45z" />
    <glyph glyph-name="kcedilla" unicode="&#x137;" horiz-adv-x="1019" 
d="M727 592q64 -5 139.5 -107.5t75.5 -220.5v-274h-205v274q0 60 -37 97.5t-96 37.5h-106l-131 -110v-299h-205v1440h205v-873l485 410l133 -156zM518 -412q8 -4 7 0l-11 11q-27 24 -27 65q0 39 29 68q30 26 66 26q39 0 65 -26q29 -33 29 -68q0 -24 -10 -41l-62 -164
l-119 45z" />
    <glyph glyph-name="kra" unicode="&#x138;" horiz-adv-x="1019" 
d="M727 592q64 -5 139.5 -107.5t75.5 -220.5v-274h-205v274q0 60 -37 97.5t-96 37.5h-106l-131 -110v-299h-205v1440h205v-873l485 410l133 -156z" />
    <glyph glyph-name="Lacute" unicode="&#x139;" 
d="M688 -10q-139 0 -260.5 71t-193.5 192.5t-72 262.5v914h205v-914q0 -136 92.5 -228.5t228.5 -92.5h529v-205h-529zM489 1880l185 -141l-94 -123l-195 -154l-135 109z" />
    <glyph glyph-name="lacute" unicode="&#x13a;" horiz-adv-x="516" 
d="M324 195h102v-205h-102q-86 0 -152 65.5t-66 151.5v1223h205v-1223q0 -9 2 -10.5t11 -1.5zM293 1991l184 -142l-94 -120l-195 -156l-137 110z" />
    <glyph glyph-name="Lcedilla" unicode="&#x13b;" 
d="M688 -10q-139 0 -260.5 71t-193.5 192.5t-72 262.5v914h205v-914q0 -136 92.5 -228.5t228.5 -92.5h529v-205h-529zM647 -412q7 -3 7 -1q0 1 -5 7q-3 3 -4 5q-29 25 -29 65q0 35 29 68q30 26 66 26q38 0 67 -26q27 -30 27 -68q0 -21 -8 -41l-64 -164l-119 45z" />
    <glyph glyph-name="lcedilla" unicode="&#x13c;" horiz-adv-x="516" 
d="M379 195h102v-205h-102q-86 0 -151.5 65.5t-65.5 151.5v1223h205v-1223q0 -9 1.5 -10.5t10.5 -1.5zM260 -412q7 -3 7 -1q0 1 -5 7q-3 3 -4 5q-29 25 -29 65q0 35 29 68q30 26 66 26q38 0 67 -26q27 -30 27 -68q0 -21 -8 -41l-64 -164l-119 45z" />
    <glyph glyph-name="Lcaron" unicode="&#x13d;" 
d="M688 -10q-139 0 -260.5 71t-193.5 192.5t-72 262.5v914h205v-914q0 -136 92.5 -228.5t228.5 -92.5h529v-205h-529zM1032 1184q10 -4 10 -2t-10 12l-4 4q-39 39 -39 94q0 53 41 94q39 39 94 39q56 0 95 -39q38 -38 38 -94q0 -31 -12 -59l-90 -234l-170 66z" />
    <glyph glyph-name="lcaron" unicode="&#x13e;" horiz-adv-x="866" 
d="M344 195h102v-205h-102q-86 0 -151.5 65.5t-65.5 151.5v1223h205v-1223q0 -9 1.5 -10.5t10.5 -1.5zM629 1184q10 -4 10 -2t-10 12l-4 4q-39 39 -39 94q0 53 41 94q39 39 94 39t94 -39t39 -94q0 -31 -12 -59l-90 -234l-170 66z" />
    <glyph glyph-name="Lmiddledot" unicode="&#x13f;" 
d="M688 -10q-139 0 -260.5 71t-193.5 192.5t-72 262.5v914h205v-914q0 -136 92.5 -228.5t228.5 -92.5h529v-205h-529zM1087 852q44 0 79.5 -36t35.5 -79q0 -44 -35.5 -79t-79.5 -35q-43 0 -77.5 35t-34.5 79q0 43 34.5 79t77.5 36z" />
    <glyph glyph-name="lmiddledot" unicode="&#x140;" horiz-adv-x="698" 
d="M344 195h102v-205h-102q-86 0 -151.5 65.5t-65.5 151.5v1223h205v-1223q0 -9 1.5 -10.5t10.5 -1.5zM672 852q43 0 78.5 -36t35.5 -79q0 -44 -35.5 -79t-78.5 -35q-44 0 -79.5 35t-35.5 79q0 43 35.5 79t79.5 36z" />
    <glyph glyph-name="Lslash" unicode="&#x141;" 
d="M342 -10q-139 0 -260.5 71t-193.5 192.5t-72 262.5v914h204v-914q0 -136 92.5 -228.5t229.5 -92.5h528v-205h-528zM571 854v-207h-1101v207h1101z" />
    <glyph glyph-name="lslash" unicode="&#x142;" horiz-adv-x="516" 
d="M-33 195h103v-205h-103q-86 0 -151.5 65.5t-65.5 151.5v1223h205v-1223q0 -9 1.5 -10.5t10.5 -1.5zM440 854v-207h-1102v207h1102z" />
    <glyph glyph-name="Nacute" unicode="&#x143;" 
d="M1217 1430v-1440h-158l-692 1007v-1007h-205v1440h155l695 -1008v1008h205zM791 1880l184 -141l-94 -123l-195 -154l-137 109z" />
    <glyph glyph-name="nacute" unicode="&#x144;" horiz-adv-x="1134" 
d="M631 926q125 0 233 -64t172 -172t64 -233v-467h-205v467q0 114 -75 188t-189 74t-189 -74t-75 -188v-467h-205v467q0 125 64 233t172 172t233 64zM729 1350l184 -142l-94 -123l-194 -153l-138 108z" />
    <glyph glyph-name="Ncedilla" unicode="&#x145;" 
d="M1217 1430v-1440h-158l-692 1007v-1007h-205v1440h155l695 -1008v1008h205zM647 -412q7 -3 7 -1q0 1 -5 7q-3 3 -4 5q-29 25 -29 65q0 35 29 68q30 26 66 26q38 0 67 -26q27 -30 27 -68q0 -21 -8 -41l-64 -164l-119 45z" />
    <glyph glyph-name="ncedilla" unicode="&#x146;" horiz-adv-x="1134" 
d="M631 926q125 0 233 -64t172 -172t64 -233v-467h-205v467q0 114 -75 188t-189 74t-189 -74t-75 -188v-467h-205v467q0 125 64 233t172 172t233 64zM586 -412q7 -3 7 -1q0 1 -5 7q-3 3 -4 5q-29 25 -29 65q0 35 29 68q30 26 65 26q39 0 68 -26q26 -29 26 -68q0 -21 -8 -41
l-63 -164l-119 45z" />
    <glyph glyph-name="Ncaron" unicode="&#x147;" 
d="M1217 1430v-1440h-158l-692 1007v-1007h-205v1440h155l695 -1008v1008h205zM420 1714v33l125 106h33l116 -137q-12 -18 4 -2q15 16 60 70q51 60 80 78l149 -127l-121 -148q-101 -120 -116 -127h-113z" />
    <glyph glyph-name="ncaron" unicode="&#x148;" horiz-adv-x="1134" 
d="M631 926q125 0 233 -64t172 -172t64 -233v-467h-205v467q0 114 -75 188t-189 74t-189 -74t-75 -188v-467h-205v467q0 125 64 233t172 172t233 64zM358 1184v33l125 106h33l117 -137q-12 -19 4 -2l59 69q51 60 80 78l150 -127l-121 -147q-100 -119 -117 -127h-113z" />
    <glyph glyph-name="napostrophe" unicode="&#x149;" horiz-adv-x="1210" 
d="M166 1184q10 -4 10 -2t-10 12l-4 4q-39 39 -39 94q0 53 41 94q39 39 94 39t94 -39t39 -94q0 -31 -12 -59l-90 -234l-170 66zM692 926q125 0 233 -64t172 -172t64 -233v-467h-205v467q0 114 -75 188t-189 74t-189 -74t-75 -188v-467h-205v467q0 125 64 233t172 172t233 64
z" />
    <glyph glyph-name="Eng" unicode="&#x14a;" 
d="M1217 1430v-1440h-158l-692 1007v-1007h-205v1440h155l695 -1008v1008h205zM1032 16q11 -4 10 -1q0 2 -14 16q-39 39 -39 94q0 53 41 94q39 39 94 39q56 0 95 -39q38 -38 38 -94q0 -31 -12 -59l-90 -234l-170 66z" />
    <glyph glyph-name="eng" unicode="&#x14b;" horiz-adv-x="1134" 
d="M631 926q125 0 233 -64t172 -172t64 -233v-467h-205v467q0 114 -75 188t-189 74t-189 -74t-75 -188v-467h-205v467q0 125 64 233t172 172t233 64zM909 16q11 -4 10 -1q0 2 -14 16q-39 39 -39 94q0 53 41 94q39 39 94 39q56 0 95 -39t39 -94q0 -29 -13 -59l-90 -234
l-170 66z" />
    <glyph glyph-name="Omacron" unicode="&#x14c;" horiz-adv-x="1640" 
d="M883 1430q145 0 279 -58t231 -154.5t155 -229.5t58 -277q0 -145 -58 -278t-155 -230t-231 -155t-279 -58t-278 58t-230 155t-155 230t-58 278q0 144 58 277t155 229.5t230 154.5t278 58zM883 195q144 0 263 68t187 186.5t68 261.5q0 217 -149.5 365.5t-368.5 148.5
q-142 0 -260.5 -67.5t-187 -186t-68.5 -260.5q0 -143 68.5 -261.5t187 -186.5t260.5 -68zM625 1532v194h565v-194h-565z" />
    <glyph glyph-name="omacron" unicode="&#x14d;" horiz-adv-x="1134" 
d="M631 926q125 0 233 -64t172 -172t64 -233q0 -189 -139.5 -328t-329.5 -139t-329.5 139t-139.5 328q0 125 64 233t172 172t233 64zM631 195q114 0 189 74.5t75 187.5q0 114 -75 188t-189 74t-189 -74t-75 -188q0 -113 75 -187.5t189 -74.5zM358 1001v195h566v-195h-566z
" />
    <glyph glyph-name="obreve" unicode="&#x14f;" horiz-adv-x="1134" 
d="M631 926q125 0 233 -64t172 -172t64 -233q0 -189 -139.5 -328t-329.5 -139t-329.5 139t-139.5 328q0 125 64 233t172 172t233 64zM631 195q114 0 189 74.5t75 187.5q0 114 -75 188t-189 74t-189 -74t-75 -188q0 -113 75 -187.5t189 -74.5zM553 1434v-66q0 -40 25 -65
q26 -23 63 -23q40 0 66 23q24 24 24 65v66h184v-66q0 -113 -81 -194q-80 -80 -193 -80q-109 0 -192 80q-82 82 -82 194v66h186z" />
    <glyph glyph-name="Odoubleacute" unicode="&#x150;" horiz-adv-x="1640" 
d="M883 1430q145 0 279 -58t231 -154.5t155 -229.5t58 -277q0 -145 -58 -278t-155 -230t-231 -155t-279 -58t-278 58t-230 155t-155 230t-58 278q0 144 58 277t155 229.5t230 154.5t278 58zM883 195q144 0 263 68t187 186.5t68 261.5q0 217 -149.5 365.5t-368.5 148.5
q-142 0 -260.5 -67.5t-187 -186t-68.5 -260.5q0 -143 68.5 -261.5t187 -186.5t260.5 -68zM885 1995l184 -142l-94 -122l-195 -154l-137 109zM1217 1995l184 -142l-94 -122l-195 -154l-137 109z" />
    <glyph glyph-name="odoubleacute" unicode="&#x151;" horiz-adv-x="1134" 
d="M631 926q125 0 233 -64t172 -172t64 -233q0 -189 -139.5 -328t-329.5 -139t-329.5 139t-139.5 328q0 125 64 233t172 172t233 64zM631 195q114 0 189 74.5t75 187.5q0 114 -75 188t-189 74t-189 -74t-75 -188q0 -113 75 -187.5t189 -74.5zM618 1464l185 -141l-94 -123
l-195 -153l-137 108zM950 1464l185 -141l-95 -123l-194 -153l-137 108z" />
    <glyph glyph-name="OE" unicode="&#x152;" horiz-adv-x="2537" 
d="M848 1430q145 0 279 -58t231 -154.5t155 -229.5t58 -277q0 -145 -58 -278t-155 -230t-231 -155t-279 -58t-278 58t-230 155t-155 230t-58 278q0 144 58 277t155 229.5t230 154.5t278 58zM848 195q144 0 263 68t187 186.5t68 261.5q0 217 -149.5 365.5t-368.5 148.5
q-142 0 -260.5 -67.5t-187 -186t-68.5 -260.5q0 -143 68.5 -261.5t187 -186.5t260.5 -68zM2488 195v-205h-1054v1440h1054v-205h-850v-412h703v-207h-703v-411h850z" />
    <glyph glyph-name="oe" unicode="&#x153;" horiz-adv-x="1886" 
d="M596 926q125 0 233 -64t172 -172t64 -233q0 -189 -139.5 -328t-329.5 -139t-329.5 139t-139.5 328q0 125 64 233t172 172t233 64zM596 195q114 0 189 74.5t75 187.5q0 114 -75 188t-189 74t-189 -74t-75 -188q0 -113 75 -187.5t189 -74.5zM1712 139q-54 -54 -96 -78
q-115 -71 -242 -71q-188 0 -330 139q-139 139 -139 328q0 190 139 329q143 140 330 140q190 0 330 -140q139 -136 139 -329v-101h-717q15 -61 82 -110q66 -51 166 -51q77 0 139 41q30 20 54 47zM1126 559h496q-12 59 -82 111q-67 49 -166 49t-166 -49t-82 -111z" />
    <glyph glyph-name="Racute" unicode="&#x154;" 
d="M1217 983q0 -116 -55 -219.5t-120 -140.5q66 -44 120.5 -154t54.5 -231v-248h-205v248q0 126 -86.5 211.5t-214.5 85.5h-344v-545h-205v1440h606q119 0 222.5 -61t165 -164t61.5 -222zM768 741q106 0 175 69t69 173t-69 173t-175 69h-401v-484h401zM791 1880l184 -141
l-94 -123l-195 -154l-137 109z" />
    <glyph glyph-name="racute" unicode="&#x155;" horiz-adv-x="841" 
d="M752 694q-79 25 -121 25q-111 0 -187 -76q-77 -77 -77 -186v-467h-205v467q0 194 137 334q138 135 332 135q83 0 186 -39zM575 1350l185 -142l-94 -123l-195 -153l-137 108z" />
    <glyph glyph-name="Rcedilla" unicode="&#x156;" 
d="M1217 983q0 -116 -55 -219.5t-120 -140.5q66 -44 120.5 -154t54.5 -231v-248h-205v248q0 126 -86.5 211.5t-214.5 85.5h-344v-545h-205v1440h606q119 0 222.5 -61t165 -164t61.5 -222zM768 741q106 0 175 69t69 173t-69 173t-175 69h-401v-484h401zM647 -412q7 -3 7 -1
q0 1 -5 7q-3 3 -4 5q-29 25 -29 65q0 35 29 68q30 26 66 26q38 0 67 -26q27 -30 27 -68q0 -21 -8 -41l-64 -164l-119 45z" />
    <glyph glyph-name="rcedilla" unicode="&#x157;" horiz-adv-x="841" 
d="M752 694q-79 25 -121 25q-111 0 -187 -76q-77 -77 -77 -186v-467h-205v467q0 194 137 334q138 135 332 135q83 0 186 -39zM233 -412q7 -3 7 -1q0 1 -5 7q-3 3 -4 5q-28 25 -28 65t28 68q30 26 66 26q39 0 68 -26q26 -29 26 -68q0 -24 -10 -41l-62 -164l-118 45z" />
    <glyph glyph-name="Rcaron" unicode="&#x158;" 
d="M1217 983q0 -116 -55 -219.5t-120 -140.5q66 -44 120.5 -154t54.5 -231v-248h-205v248q0 126 -86.5 211.5t-214.5 85.5h-344v-545h-205v1440h606q119 0 222.5 -61t165 -164t61.5 -222zM768 741q106 0 175 69t69 173t-69 173t-175 69h-401v-484h401zM420 1714v33l125 106
h33l116 -137q-12 -18 4 -2q15 16 60 70q51 60 80 78l149 -127l-121 -148q-101 -120 -116 -127h-113z" />
    <glyph glyph-name="rcaron" unicode="&#x159;" horiz-adv-x="841" 
d="M752 694q-79 25 -121 25q-111 0 -187 -76q-77 -77 -77 -186v-467h-205v467q0 194 137 334q138 135 332 135q83 0 186 -39zM205 1184v33l125 106h32l117 -137q-15 -23 12 7q18 19 52 60q51 60 80 78l149 -127l-121 -147q-101 -120 -116 -127h-113z" />
    <glyph glyph-name="Sacute" unicode="&#x15a;" 
d="M805 1430q108 0 203.5 -56.5t152 -151t56.5 -202.5v-105h-205v105q0 88 -59 146.5t-148 58.5h-232q-89 0 -147.5 -58.5t-58.5 -146.5q0 -90 58.5 -148.5t147.5 -58.5h232q166 0 289 -123.5t123 -290.5q0 -164 -123 -286.5t-289 -122.5h-232q-166 0 -288.5 122.5
t-122.5 286.5v105h205v-105q0 -88 58.5 -146t147.5 -58h232q89 0 148 58t59 146q0 90 -58.5 148.5t-148.5 58.5h-232q-166 0 -288.5 123.5t-122.5 290.5q0 164 123 287t288 123h232zM791 1880l184 -141l-94 -123l-195 -154l-137 109z" />
    <glyph glyph-name="sacute" unicode="&#x15b;" horiz-adv-x="958" 
d="M358 297q10 -42 17.5 -55.5t25.5 -24.5q42 -29 144 -29q101 0 151 33q45 26 45 55q0 25 -10.5 39.5t-36.5 26.5q-66 29 -137 29h-6q-205 0 -293 73q-46 35 -71 86.5t-25 108.5q0 66 37 135q40 69 129 111q75 40 223 43h8q140 0 225 -45q90 -54 125 -117q7 -13 41 -88
l-200 -64q-10 45 -18.5 62t-26.5 31q-40 32 -150 32h-6q-113 0 -148 -32q-36 -31 -36 -68q0 -18 6 -27.5t24 -21.5q49 -27 156 -27q171 0 280 -67q54 -35 83.5 -93t31.5 -127v-6q0 -98 -57 -161q-55 -61 -150 -91q-89 -28 -192 -28h-6q-138 0 -215 39q-90 41 -125 106
q-16 21 -39 92zM649 1350l185 -142l-95 -123l-194 -153l-137 108z" />
    <glyph glyph-name="Scircumflex" unicode="&#x15c;" 
d="M805 1430q108 0 203.5 -56.5t152 -151t56.5 -202.5v-105h-205v105q0 88 -59 146.5t-148 58.5h-232q-89 0 -147.5 -58.5t-58.5 -146.5q0 -90 58.5 -148.5t147.5 -58.5h232q166 0 289 -123.5t123 -290.5q0 -164 -123 -286.5t-289 -122.5h-232q-166 0 -288.5 122.5
t-122.5 286.5v105h205v-105q0 -88 58.5 -146t147.5 -58h232q89 0 148 58t59 146q0 90 -58.5 148.5t-148.5 58.5h-232q-166 0 -288.5 123.5t-122.5 290.5q0 164 123 287t288 123h232zM643 1853h113q16 -10 116 -129l121 -145l-151 -129q-36 25 -78 78q-71 84 -71 77
q0 -2 5 -10l-114 -135h-33l-125 105v32z" />
    <glyph glyph-name="scircumflex" unicode="&#x15d;" horiz-adv-x="958" 
d="M358 297q10 -42 17.5 -55.5t25.5 -24.5q42 -29 144 -29q101 0 151 33q45 26 45 55q0 25 -10.5 39.5t-36.5 26.5q-66 29 -137 29h-6q-205 0 -293 73q-46 35 -71 86.5t-25 108.5q0 66 37 135q40 69 129 111q75 40 223 43h8q140 0 225 -45q90 -54 125 -117q7 -13 41 -88
l-200 -64q-10 45 -18.5 62t-26.5 31q-40 32 -150 32h-6q-113 0 -148 -32q-36 -31 -36 -68q0 -18 6 -27.5t24 -21.5q49 -27 156 -27q171 0 280 -67q54 -35 83.5 -93t31.5 -127v-6q0 -98 -57 -161q-55 -61 -150 -91q-89 -28 -192 -28h-6q-138 0 -215 39q-90 41 -125 106
q-16 21 -39 92zM502 1323h112q18 -12 117 -129l121 -145l-152 -129q-36 25 -77 77q-71 84 -71 77q0 -1 5 -9l-115 -135h-32l-125 104v33z" />
    <glyph glyph-name="Scedilla" unicode="&#x15e;" 
d="M805 1430q108 0 203.5 -56.5t152 -151t56.5 -202.5v-105h-205v105q0 88 -59 146.5t-148 58.5h-232q-89 0 -147.5 -58.5t-58.5 -146.5q0 -90 58.5 -148.5t147.5 -58.5h232q166 0 289 -123.5t123 -290.5q0 -164 -123 -286.5t-289 -122.5h-232q-166 0 -288.5 122.5
t-122.5 286.5v105h205v-105q0 -88 58.5 -146t147.5 -58h232q89 0 148 58t59 146q0 90 -58.5 148.5t-148.5 58.5h-232q-166 0 -288.5 123.5t-122.5 290.5q0 164 123 287t288 123h232zM698 -328q-86 0 -141 70q-18 15 -18 55l125 90q29 -39 34 -39h4q3 3 3 0q0 -2 2 -4
q0 -2 -2 -2q-9 0 -146 -51l55 277h177l-13 -62q40 -6 78 -74q21 -43 21 -84q0 -74 -56 -124q-55 -52 -123 -52z" />
    <glyph glyph-name="scedilla" unicode="&#x15f;" horiz-adv-x="958" 
d="M358 297q10 -42 17.5 -55.5t25.5 -24.5q42 -29 144 -29q101 0 151 33q45 26 45 55q0 25 -10.5 39.5t-36.5 26.5q-66 29 -137 29h-6q-205 0 -293 73q-46 35 -71 86.5t-25 108.5q0 66 37 135q40 69 129 111q75 40 223 43h8q140 0 225 -45q90 -54 125 -117q7 -13 41 -88
l-200 -64q-10 45 -18.5 62t-26.5 31q-40 32 -150 32h-6q-113 0 -148 -32q-36 -31 -36 -68q0 -18 6 -27.5t24 -21.5q49 -27 156 -27q171 0 280 -67q54 -35 83.5 -93t31.5 -127v-6q0 -98 -57 -161q-55 -61 -150 -91q-89 -28 -192 -28h-6q-138 0 -215 39q-90 41 -125 106
q-16 21 -39 92zM557 -328q-86 0 -141 70q-19 16 -19 55l125 90q29 -39 35 -39h4q2 2 2 0t2 -4q0 -2 -2 -2q-8 0 -145 -51l55 277h176l-12 -62q40 -6 78 -74q20 -41 20 -84q0 -75 -55 -124q-55 -52 -123 -52z" />
    <glyph glyph-name="Scaron" unicode="&#x160;" 
d="M805 1430q108 0 203.5 -56.5t152 -151t56.5 -202.5v-105h-205v105q0 88 -59 146.5t-148 58.5h-232q-89 0 -147.5 -58.5t-58.5 -146.5q0 -90 58.5 -148.5t147.5 -58.5h232q166 0 289 -123.5t123 -290.5q0 -164 -123 -286.5t-289 -122.5h-232q-166 0 -288.5 122.5
t-122.5 286.5v105h205v-105q0 -88 58.5 -146t147.5 -58h232q89 0 148 58t59 146q0 90 -58.5 148.5t-148.5 58.5h-232q-166 0 -288.5 123.5t-122.5 290.5q0 164 123 287t288 123h232zM420 1714v33l125 106h33l116 -137q-12 -18 4 -2q15 16 60 70q51 60 80 78l149 -127
l-121 -148q-101 -120 -116 -127h-113z" />
    <glyph glyph-name="scaron" unicode="&#x161;" horiz-adv-x="958" 
d="M358 297q10 -42 17.5 -55.5t25.5 -24.5q42 -29 144 -29q101 0 151 33q45 26 45 55q0 25 -10.5 39.5t-36.5 26.5q-66 29 -137 29h-6q-205 0 -293 73q-46 35 -71 86.5t-25 108.5q0 66 37 135q40 69 129 111q75 40 223 43h8q140 0 225 -45q90 -54 125 -117q7 -13 41 -88
l-200 -64q-10 45 -18.5 62t-26.5 31q-40 32 -150 32h-6q-113 0 -148 -32q-36 -31 -36 -68q0 -18 6 -27.5t24 -21.5q49 -27 156 -27q171 0 280 -67q54 -35 83.5 -93t31.5 -127v-6q0 -98 -57 -161q-55 -61 -150 -91q-89 -28 -192 -28h-6q-138 0 -215 39q-90 41 -125 106
q-16 21 -39 92zM279 1184v33l124 106h33l117 -137q-12 -19 4 -2l59 69q51 60 80 78l150 -127l-121 -147q-100 -119 -117 -127h-112z" />
    <glyph glyph-name="Tcedilla" unicode="&#x162;" 
d="M162 1225v205h1055v-205h-424v-1235h-207v1235h-424zM698 -328q-86 0 -141 70q-18 15 -18 55l125 90q29 -39 34 -39h4q3 3 3 0q0 -2 2 -4q0 -2 -2 -2q-9 0 -146 -51l55 277h177l-13 -62q40 -6 78 -74q21 -43 21 -84q0 -74 -56 -124q-55 -52 -123 -52z" />
    <glyph glyph-name="tcedilla" unicode="&#x163;" horiz-adv-x="811" 
d="M616 195h156v-205h-156q-156 0 -263 113t-107 278v338h-92v207h92v350h205v-350h159v-207h-159v-338q0 -89 43.5 -137.5t121.5 -48.5zM461 -328q-87 0 -142 70q-18 15 -18 55l125 90q29 -39 35 -39h4q2 2 2 0t2 -4q0 -2 -2 -2q-8 0 -145 -51l55 277h176l-12 -62
q39 -6 77 -74q21 -43 21 -84q0 -75 -55 -124q-55 -52 -123 -52z" />
    <glyph glyph-name="Tcaron" unicode="&#x164;" 
d="M162 1225v205h1055v-205h-424v-1235h-207v1235h-424zM420 1714v33l125 106h33l116 -137q-12 -18 4 -2q15 16 60 70q51 60 80 78l149 -127l-121 -148q-101 -120 -116 -127h-113z" />
    <glyph glyph-name="tcaron" unicode="&#x165;" horiz-adv-x="1177" 
d="M582 195h155v-205h-155q-157 0 -264 113.5t-107 277.5v338h-92v207h92v350h205v-350h159v-207h-159v-338q0 -89 44 -137.5t122 -48.5zM936 1184q10 -4 10 -2t-10 12l-4 4q-39 39 -39 94q0 53 41 94q39 39 94 39t94 -39t39 -94q0 -31 -12 -59l-90 -234l-170 66z" />
    <glyph glyph-name="Tbar" unicode="&#x166;" 
d="M137 1225v205h1055v-205h-424v-1235h-207v1235h-424zM1214 854v-207h-1101v207h1101z" />
    <glyph glyph-name="tbar" unicode="&#x167;" horiz-adv-x="811" 
d="M362 195h156v-205h-156q-156 0 -263 113t-107 278v338h-92v207h92v350h205v-350h159v-207h-159v-338q0 -89 43.5 -137.5t121.5 -48.5zM748 645h-1102v-207h1102v207z" />
    <glyph glyph-name="Utilde" unicode="&#x168;" 
d="M1012 516v914h205v-914q0 -141 -72.5 -262.5t-194.5 -192.5t-262 -71q-139 0 -260.5 71t-193.5 192.5t-72 262.5v914h205v-914q0 -136 92.5 -228.5t228.5 -92.5q138 0 231 92t93 229zM752 1739l14 -13q11 -7 27 -4q11 3 19.5 13t39.5 57l168 -113q-91 -133 -186 -153
q-44 -9 -93.5 1t-89.5 36l-14 12q-11 7 -27 4q-11 -2 -19 -11.5t-40 -58.5l-168 113q92 134 186 154q44 9 93.5 -1t89.5 -36z" />
    <glyph glyph-name="utilde" unicode="&#x169;" horiz-adv-x="1134" 
d="M895 926h205v-469q0 -189 -139.5 -328t-329.5 -139t-329.5 139t-139.5 328v469h205v-469q0 -113 75 -187.5t189 -74.5t189 74.5t75 187.5v469zM690 1208l15 -12q11 -7 26 -4q8 2 12.5 5.5t15.5 17.5t32 47l167 -113q-92 -134 -186 -154q-44 -9 -93 1t-89 36l-15 12
q-12 7 -26 5q-11 -2 -20 -12t-40 -58l-167 113q91 133 186 153q44 9 93 -1t89 -36z" />
    <glyph glyph-name="Umacron" unicode="&#x16a;" 
d="M1012 516v914h205v-914q0 -141 -72.5 -262.5t-194.5 -192.5t-262 -71q-139 0 -260.5 71t-193.5 192.5t-72 262.5v914h205v-914q0 -136 92.5 -228.5t228.5 -92.5q138 0 231 92t93 229zM420 1532v194h565v-194h-565z" />
    <glyph glyph-name="umacron" unicode="&#x16b;" horiz-adv-x="1134" 
d="M895 926h205v-469q0 -189 -139.5 -328t-329.5 -139t-329.5 139t-139.5 328v469h205v-469q0 -113 75 -187.5t189 -74.5t189 74.5t75 187.5v469zM358 1001v195h566v-195h-566z" />
    <glyph glyph-name="ubreve" unicode="&#x16d;" horiz-adv-x="1134" 
d="M895 926h205v-469q0 -189 -139.5 -328t-329.5 -139t-329.5 139t-139.5 328v469h205v-469q0 -113 75 -187.5t189 -74.5t189 74.5t75 187.5v469zM553 1434v-66q0 -40 25 -65q26 -23 63 -23q40 0 66 23q24 24 24 65v66h184v-66q0 -113 -81 -194q-80 -80 -193 -80
q-109 0 -192 80q-82 82 -82 194v66h186z" />
    <glyph glyph-name="Uring" unicode="&#x16e;" 
d="M1012 516v914h205v-914q0 -141 -72.5 -262.5t-194.5 -192.5t-262 -71q-139 0 -260.5 71t-193.5 192.5t-72 262.5v914h205v-914q0 -136 92.5 -228.5t228.5 -92.5q138 0 231 92t93 229zM705 1905q89 0 159 -70.5t70 -159.5q0 -88 -70 -158.5t-159 -70.5t-159.5 70.5
t-70.5 158.5q0 89 70.5 159.5t159.5 70.5zM705 1614q63 0 63 61q0 62 -63 62q-64 0 -64 -62q0 -61 64 -61z" />
    <glyph glyph-name="uring" unicode="&#x16f;" horiz-adv-x="1134" 
d="M895 926h205v-469q0 -189 -139.5 -328t-329.5 -139t-329.5 139t-139.5 328v469h205v-469q0 -113 75 -187.5t189 -74.5t189 74.5t75 187.5v469zM643 1374q89 0 159 -70t70 -159q0 -88 -70 -159t-159 -71t-159 71t-70 159q0 89 70 159t159 70zM643 1083q64 0 64 62
q0 61 -64 61q-63 0 -63 -61q0 -62 63 -62z" />
    <glyph glyph-name="Udoubleacute" unicode="&#x170;" 
d="M1012 516v914h205v-914q0 -141 -72.5 -262.5t-194.5 -192.5t-262 -71q-139 0 -260.5 71t-193.5 192.5t-72 262.5v914h205v-914q0 -136 92.5 -228.5t228.5 -92.5q138 0 231 92t93 229zM680 1995l184 -142l-94 -122l-195 -154l-137 109zM1012 1995l184 -142l-94 -122
l-195 -154l-137 109z" />
    <glyph glyph-name="udoubleacute" unicode="&#x171;" horiz-adv-x="1134" 
d="M895 926h205v-469q0 -189 -139.5 -328t-329.5 -139t-329.5 139t-139.5 328v469h205v-469q0 -113 75 -187.5t189 -74.5t189 74.5t75 187.5v469zM618 1464l185 -141l-94 -123l-195 -153l-137 108zM950 1464l185 -141l-95 -123l-194 -153l-137 108z" />
    <glyph glyph-name="Uogonek" unicode="&#x172;" 
d="M1012 516v914h205v-914q0 -141 -72.5 -262.5t-194.5 -192.5t-262 -71q-139 0 -260.5 71t-193.5 192.5t-72 262.5v914h205v-914q0 -136 92.5 -228.5t228.5 -92.5q138 0 231 92t93 229zM846 -375q-244 0 -244 205q0 109 109 254l161 -8q-84 -141 -84 -195q0 -55 101 -55h49
l-10 -197z" />
    <glyph glyph-name="uogonek" unicode="&#x173;" horiz-adv-x="1134" 
d="M895 926h205v-469q0 -189 -139.5 -328t-329.5 -139t-329.5 139t-139.5 328v469h205v-469q0 -113 75 -187.5t189 -74.5t189 74.5t75 187.5v469zM780 -375q-245 0 -245 205q0 110 108 254l162 -8q-84 -147 -84 -195q0 -55 100 -55h49l-10 -197z" />
    <glyph glyph-name="Wcircumflex" unicode="&#x174;" horiz-adv-x="1802" 
d="M1540 1430h213l-430 -1440h-154l-217 731l-221 -731h-151l-433 1440h215l293 -979l297 985l293 -985zM918 1853h114q18 -14 115 -129l123 -145l-152 -129q-36 25 -78 78q-67 77 -70 77q-1 0 5 -10l-115 -135h-33l-125 105v32z" />
    <glyph glyph-name="wcircumflex" unicode="&#x175;" horiz-adv-x="1366" 
d="M1124 926h207v-594q0 -136 -103.5 -239t-240.5 -103q-74 0 -145 30.5t-97 63.5q-25 -33 -95 -63.5t-146 -30.5q-136 0 -239 103t-103 239v594h205v-594q0 -60 38.5 -98.5t98.5 -38.5q63 0 101 37.5t38 99.5v594h205v-594q0 -60 39 -98.5t100 -38.5q60 0 98.5 38.5
t38.5 98.5v594zM702 1323h115q18 -14 115 -129l123 -145l-152 -129q-38 27 -78 77q-68 78 -70 78q-1 0 5 -10l-115 -135h-33l-125 104v33z" />
    <glyph glyph-name="Ycircumflex" unicode="&#x176;" 
d="M1012 977v453h205v-453q0 -96 -35.5 -187t-94 -159.5t-136 -114.5t-158.5 -57v-469h-207v469q-81 11 -158.5 57t-136 114.5t-94 159.5t-35.5 187v453h205v-453q0 -136 92 -228t229 -92q138 0 231 92t93 228zM643 1853h113q16 -10 116 -129l121 -145l-151 -129
q-36 25 -78 78q-71 84 -71 77q0 -2 5 -10l-114 -135h-33l-125 105v32z" />
    <glyph glyph-name="ycircumflex" unicode="&#x177;" horiz-adv-x="1134" 
d="M893 926h207v-973q0 -189 -139.5 -328t-329.5 -139q-128 0 -240.5 67t-173.5 179l-47 92l178 96l49 -90q37 -66 98 -102.5t136 -36.5q114 0 188 74.5t74 187.5v104q-17 -17 -99 -42t-163 -25q-190 0 -329.5 139t-139.5 328v469h205v-469q0 -113 75 -187.5t189 -74.5
q75 0 135.5 36.5t95.5 102.5l49 94l-18 12v486zM582 1323h112q18 -12 117 -129l121 -145l-152 -129q-38 27 -78 77q-80 95 -69 74q2 -2 4 -6l-115 -135h-33l-124 104v33z" />
    <glyph glyph-name="Ydieresis" unicode="&#x178;" 
d="M1012 977v453h205v-453q0 -96 -35.5 -187t-94 -159.5t-136 -114.5t-158.5 -57v-469h-207v469q-81 11 -158.5 57t-136 114.5t-94 159.5t-35.5 187v453h205v-453q0 -136 92 -228t229 -92q138 0 231 92t93 228zM526 1767q51 0 92 -41.5t41 -93.5q0 -51 -41 -92t-92 -41
q-52 0 -93.5 41t-41.5 92q0 52 41.5 93.5t93.5 41.5zM881 1767q51 0 92 -41.5t41 -93.5q0 -51 -41 -92t-92 -41q-52 0 -94 41t-42 92q0 52 41.5 93.5t94.5 41.5z" />
    <glyph glyph-name="Zacute" unicode="&#x179;" horiz-adv-x="1435" 
d="M1366 1430l-850 -1235h758v-205h-1147l850 1235h-756v205h1145zM852 1880l182 -141l-94 -123l-195 -154l-135 109z" />
    <glyph glyph-name="zacute" unicode="&#x17a;" horiz-adv-x="1247" 
d="M1221 926v-160l-531 -571h600v-205h-915v168l524 561h-496v207h818zM932 1350l184 -142l-94 -123l-195 -153l-137 108z" />
    <glyph glyph-name="Zdotaccent" unicode="&#x17b;" horiz-adv-x="1435" 
d="M1366 1430l-850 -1235h758v-205h-1147l850 1235h-756v205h1145zM770 1847q44 0 79.5 -34.5t35.5 -77.5q0 -44 -35.5 -79.5t-79.5 -35.5q-43 0 -78 35.5t-35 79.5q0 43 35 77.5t78 34.5z" />
    <glyph glyph-name="zdotaccent" unicode="&#x17c;" horiz-adv-x="1247" 
d="M1221 926v-160l-531 -571h600v-205h-915v168l524 561h-496v207h818zM852 1317q43 0 79 -35t36 -78q0 -44 -36 -79t-79 -35q-44 0 -79.5 35t-35.5 79q0 43 35.5 78t79.5 35z" />
    <glyph glyph-name="Zcaron" unicode="&#x17d;" horiz-adv-x="1435" 
d="M1366 1430l-850 -1235h758v-205h-1147l850 1235h-756v205h1145zM481 1714v33l125 106h33l115 -137q-18 -28 28 24q15 18 37 44q42 53 78 78l152 -127l-123 -148q-100 -118 -115 -127h-115z" />
    <glyph glyph-name="zcaron" unicode="&#x17e;" horiz-adv-x="1247" 
d="M1221 926v-160l-531 -571h600v-205h-915v168l524 561h-496v207h818zM561 1184v33l125 106h33l117 -137q-12 -19 4 -2l59 69q51 60 80 78l149 -127l-120 -147q-100 -119 -117 -127h-113z" />
    <glyph glyph-name="longs" unicode="&#x17f;" horiz-adv-x="808" 
d="M709 1071q-78 0 -121 -48.5t-43 -137.5v-895h-207v895q0 164 107 277.5t264 113.5h155v-205h-155z" />
    <glyph glyph-name="DZcaron" unicode="&#x1c4;" horiz-adv-x="2703" 
d="M1292 711q0 -145 -58 -278t-155.5 -230t-230.5 -155t-277 -58h-444v1440h444q145 0 278 -58t230 -154.5t155 -229.5t58 -277zM332 1225v-1030h239q217 0 365.5 149t148.5 367q0 107 -40 202t-108.5 163.5t-163.5 108.5t-202 40h-239zM2681 1430l-850 -1235h758v-205
h-1147l850 1235h-756v205h1145zM1796 1714v33l125 106h33l114 -137q-9 -14 -1 -8q14 13 67 76q42 53 78 78l151 -127l-122 -148q-100 -118 -115 -127h-115z" />
    <glyph glyph-name="Dzcaron" unicode="&#x1c5;" horiz-adv-x="2578" 
d="M1292 711q0 -145 -58 -278t-155.5 -230t-230.5 -155t-277 -58h-444v1440h444q145 0 278 -58t230 -154.5t155 -229.5t58 -277zM332 1225v-1030h239q217 0 365.5 149t148.5 367q0 107 -40 202t-108.5 163.5t-163.5 108.5t-202 40h-239zM2431 926v-160l-530 -571h600v-205
h-916v168l524 561h-495v207h817zM1772 1184v33l124 106h33l117 -137q-12 -19 4 -2q14 16 59 69q51 60 80 78l150 -127l-121 -147q-100 -119 -117 -127h-112z" />
    <glyph glyph-name="dzcaron" unicode="&#x1c6;" horiz-adv-x="2338" 
d="M860 1430h205v-973q0 -189 -139.5 -328t-329.5 -139t-329.5 139t-139.5 328q0 125 64 233t172 172t233 64q82 0 163.5 -26.5t100.5 -45.5v576zM860 457v18l21 12l-54 95q-35 66 -95.5 101.5t-135.5 35.5q-114 0 -189 -74t-75 -188q0 -113 75 -187.5t189 -74.5t189 74.5
t75 187.5zM2191 926v-160l-530 -571h600v-205h-915v168l524 561h-496v207h817zM1532 1184v33l125 106h33l116 -137q-15 -23 12 7q18 19 52 60q51 60 80 78l149 -127l-121 -147q-101 -120 -116 -127h-113z" />
    <glyph glyph-name="LJ" unicode="&#x1c7;" horiz-adv-x="2019" 
d="M653 -10q-139 0 -260.5 71t-193.5 192.5t-72 262.5v914h205v-914q0 -136 92 -228.5t229 -92.5h529v-205h-529zM1991 516q0 -141 -72.5 -262.5t-194.5 -192.5t-262 -71h-102v205h102q137 0 229.5 91.5t92.5 229.5v914h207v-914z" />
    <glyph glyph-name="Lj" unicode="&#x1c8;" horiz-adv-x="1546" 
d="M653 -10q-139 0 -260.5 71t-193.5 192.5t-72 262.5v914h205v-914q0 -136 92 -228.5t229 -92.5h529v-205h-529zM1282 -47v932h207v-932q0 -93 -38 -179t-101.5 -149t-150 -101t-179.5 -38h-105v205h105q112 0 187 74.5t75 187.5zM1382 952q-51 0 -92 41.5t-41 93.5
q0 53 40.5 93.5t92.5 40.5q53 0 94.5 -40.5t41.5 -93.5q0 -52 -41.5 -93.5t-94.5 -41.5z" />
    <glyph glyph-name="lj" unicode="&#x1c9;" horiz-adv-x="735" 
d="M344 195h102v-205h-102q-86 0 -151.5 65.5t-65.5 151.5v1223h205v-1223q0 -9 1.5 -10.5t10.5 -1.5zM535 -47v932h206v-932q0 -93 -38 -179t-101.5 -149t-150 -101t-179.5 -38h-104v205h104q113 0 188 75t75 187zM635 952q-51 0 -92 41.5t-41 93.5q0 53 40.5 93.5
t92.5 40.5q53 0 94 -40t41 -94q0 -53 -41 -94t-94 -41z" />
    <glyph glyph-name="NJ" unicode="&#x1ca;" horiz-adv-x="2019" 
d="M1182 1430v-1440h-158l-692 1007v-1007h-205v1440h156l694 -1008v1008h205zM1991 516q0 -141 -72.5 -262.5t-194.5 -192.5t-262 -71h-102v205h102q137 0 229.5 91.5t92.5 229.5v914h207v-914z" />
    <glyph glyph-name="Nj" unicode="&#x1cb;" horiz-adv-x="1533" 
d="M1182 1430v-1440h-158l-692 1007v-1007h-205v1440h156l694 -1008v1008h205zM1286 -47v932h207v-932q0 -93 -38 -179t-101.5 -149t-150 -101t-179.5 -38h-104v205h104q112 0 187 74.5t75 187.5zM1386 952q-51 0 -92 41.5t-41 93.5q0 53 40.5 93.5t92.5 40.5
q53 0 94.5 -40.5t41.5 -93.5q0 -52 -41.5 -93.5t-94.5 -41.5z" />
    <glyph glyph-name="nj" unicode="&#x1cc;" horiz-adv-x="1865" 
d="M596 926q125 0 233 -64t172 -172t64 -233v-467h-205v467q0 114 -75 188t-189 74t-189 -74t-75 -188v-467h-205v467q0 125 64 233t172 172t233 64zM1247 -47v932h207v-932q0 -93 -38 -179t-101.5 -149t-150 -101t-179.5 -38h-104v205h104q113 0 187.5 74.5t74.5 187.5z
M1348 952q-51 0 -92.5 41.5t-41.5 93.5q0 53 41 93.5t93 40.5q53 0 94 -40t41 -94q0 -53 -41.5 -94t-93.5 -41z" />
    <glyph glyph-name="Acaron" unicode="&#x1cd;" 
d="M367 395v-405h-205v915q0 105 42.5 202t114 167.5t168.5 113t201 42.5q140 0 262 -71t194.5 -192.5t72.5 -261.5v-915h-205v405h-645zM367 905v-305h645v305q0 135 -93 227.5t-231 92.5q-136 0 -228.5 -92.5t-92.5 -227.5zM420 1714v33l125 106h33l116 -137q-12 -18 4 -2
q15 16 60 70q51 60 80 78l149 -127l-121 -148q-101 -120 -116 -127h-113z" />
    <glyph glyph-name="acaron" unicode="&#x1ce;" horiz-adv-x="1134" 
d="M631 926q125 0 233 -64t172 -172t64 -233v-467h-205v69q-18 -18 -100 -43.5t-164 -25.5q-190 0 -329.5 139t-139.5 328q0 125 64 233t172 172t233 64zM895 440v17q0 114 -75 188t-189 74t-189 -74t-75 -188q0 -113 75 -187.5t189 -74.5q75 0 135.5 36.5t95.5 102.5l53 92
zM358 1184v33l125 106h33l117 -137q-12 -19 4 -2l59 69q51 60 80 78l150 -127l-121 -147q-100 -119 -117 -127h-113z" />
    <glyph glyph-name="Icaron" unicode="&#x1cf;" horiz-adv-x="401" 
d="M178 -10h-205v1440h205v-1440zM-215 1714v33l125 106h33l114 -137q-9 -14 -1 -8q13 12 67 76q42 53 78 78l151 -127l-123 -148q-101 -119 -114 -127h-115z" />
    <glyph glyph-name="icaron" unicode="&#x1d0;" horiz-adv-x="464" 
d="M244 -10h-207v936h207v-936zM-152 1184v33l125 106h33l117 -137q-12 -19 4 -2l59 69q51 60 80 78l150 -127l-121 -147q-100 -119 -117 -127h-112z" />
    <glyph glyph-name="Ocaron" unicode="&#x1d1;" horiz-adv-x="1640" 
d="M883 1430q145 0 279 -58t231 -154.5t155 -229.5t58 -277q0 -145 -58 -278t-155 -230t-231 -155t-279 -58t-278 58t-230 155t-155 230t-58 278q0 144 58 277t155 229.5t230 154.5t278 58zM883 195q144 0 263 68t187 186.5t68 261.5q0 217 -149.5 365.5t-368.5 148.5
q-142 0 -260.5 -67.5t-187 -186t-68.5 -260.5q0 -143 68.5 -261.5t187 -186.5t260.5 -68zM625 1714v33l125 106h32l117 -137q-12 -18 4 -2q15 16 60 70q52 62 79 78l150 -127l-121 -148q-100 -119 -117 -127h-112z" />
    <glyph glyph-name="ocaron" unicode="&#x1d2;" horiz-adv-x="1134" 
d="M631 926q125 0 233 -64t172 -172t64 -233q0 -189 -139.5 -328t-329.5 -139t-329.5 139t-139.5 328q0 125 64 233t172 172t233 64zM631 195q114 0 189 74.5t75 187.5q0 114 -75 188t-189 74t-189 -74t-75 -188q0 -113 75 -187.5t189 -74.5zM358 1184v33l125 106h33
l117 -137q-12 -19 4 -2l59 69q51 60 80 78l150 -127l-121 -147q-100 -119 -117 -127h-113z" />
    <glyph glyph-name="Ucaron" unicode="&#x1d3;" 
d="M1012 516v914h205v-914q0 -141 -72.5 -262.5t-194.5 -192.5t-262 -71q-139 0 -260.5 71t-193.5 192.5t-72 262.5v914h205v-914q0 -136 92.5 -228.5t228.5 -92.5q138 0 231 92t93 229zM420 1714v33l125 106h33l116 -137q-12 -18 4 -2q15 16 60 70q51 60 80 78l149 -127
l-121 -148q-101 -120 -116 -127h-113z" />
    <glyph glyph-name="ucaron" unicode="&#x1d4;" horiz-adv-x="1134" 
d="M895 926h205v-469q0 -189 -139.5 -328t-329.5 -139t-329.5 139t-139.5 328v469h205v-469q0 -113 75 -187.5t189 -74.5t189 74.5t75 187.5v469zM358 1184v33l125 106h33l117 -137q-12 -19 4 -2l59 69q51 60 80 78l150 -127l-121 -147q-100 -119 -117 -127h-113z" />
    <glyph glyph-name="Gcaron" unicode="&#x1e6;" horiz-adv-x="1640" 
d="M780 813h826v-102q0 -142 -55.5 -275t-155.5 -235q-102 -102 -237 -156.5t-275 -54.5q-139 0 -273.5 54.5t-236.5 156.5q-101 102 -156 234t-55 276q0 141 55.5 273.5t155.5 236.5q103 101 238.5 153.5t272.5 52.5t272 -53t237 -155l73 -74l-145 -144l-72 72
q-101 101 -233 136.5t-264.5 0t-233.5 -136.5q-151 -151 -151 -362q0 -214 151 -365q101 -101 233 -136.5t264.5 0t233.5 136.5q60 60 98 131.5t46 128.5h-613v207zM625 1714v33l125 106h32l117 -137q-12 -18 4 -2q15 16 60 70q52 62 79 78l150 -127l-121 -148
q-100 -119 -117 -127h-112z" />
    <glyph glyph-name="Kcaron" unicode="&#x1e8;" horiz-adv-x="1294" 
d="M805 606h-287l-151 -147v-469h-205v1440h205v-682l749 725l144 -148l-529 -512h74q166 0 289 -123.5t123 -290.5v-409h-205v409q0 90 -58.5 148.5t-148.5 58.5zM434 1714v33l125 106h33l117 -137q-11 -18 3 -2q13 14 60 70q51 60 80 78l149 -127l-120 -148
q-100 -119 -117 -127h-113z" />
    <glyph glyph-name="kcaron" unicode="&#x1e9;" horiz-adv-x="1019" 
d="M567 592q64 -5 139.5 -107.5t75.5 -220.5v-274h-204v274q0 60 -37.5 97.5t-96.5 37.5h-106l-131 -110v-299h-205v1440h205v-873l485 410l133 -156zM-158 1874v33l125 106h31l117 -137q-7 -11 -5 -10q4 3 70 78q46 58 78 77l152 -127l-123 -145q-98 -119 -115 -129h-115z
" />
    <glyph glyph-name="DZ" unicode="&#x1f1;" horiz-adv-x="2703" 
d="M1292 711q0 -145 -58 -278t-155.5 -230t-230.5 -155t-277 -58h-444v1440h444q145 0 278 -58t230 -154.5t155 -229.5t58 -277zM332 1225v-1030h239q217 0 365.5 149t148.5 367q0 107 -40 202t-108.5 163.5t-163.5 108.5t-202 40h-239zM2681 1430l-850 -1235h758v-205
h-1147l850 1235h-756v205h1145z" />
    <glyph glyph-name="Dz" unicode="&#x1f2;" horiz-adv-x="2578" 
d="M1292 711q0 -145 -58 -278t-155.5 -230t-230.5 -155t-277 -58h-444v1440h444q145 0 278 -58t230 -154.5t155 -229.5t58 -277zM332 1225v-1030h239q217 0 365.5 149t148.5 367q0 107 -40 202t-108.5 163.5t-163.5 108.5t-202 40h-239zM2431 926v-160l-530 -571h600v-205
h-916v168l524 561h-495v207h817z" />
    <glyph glyph-name="dz" unicode="&#x1f3;" horiz-adv-x="2338" 
d="M860 1430h205v-973q0 -189 -139.5 -328t-329.5 -139t-329.5 139t-139.5 328q0 125 64 233t172 172t233 64q82 0 163.5 -26.5t100.5 -45.5v576zM860 457v18l21 12l-54 95q-35 66 -95.5 101.5t-135.5 35.5q-114 0 -189 -74t-75 -188q0 -113 75 -187.5t189 -74.5t189 74.5
t75 187.5zM2191 926v-160l-530 -571h600v-205h-915v168l524 561h-496v207h817z" />
    <glyph glyph-name="Gacute" unicode="&#x1f4;" horiz-adv-x="1640" 
d="M780 813h826v-102q0 -142 -55.5 -275t-155.5 -235q-102 -102 -237 -156.5t-275 -54.5q-139 0 -273.5 54.5t-236.5 156.5q-101 102 -156 234t-55 276q0 141 55.5 273.5t155.5 236.5q103 101 238.5 153.5t272.5 52.5t272 -53t237 -155l73 -74l-145 -144l-72 72
q-101 101 -233 136.5t-264.5 0t-233.5 -136.5q-151 -151 -151 -362q0 -214 151 -365q101 -101 233 -136.5t264.5 0t233.5 136.5q60 60 98 131.5t46 128.5h-613v207zM995 1880l185 -141l-95 -123l-194 -154l-137 109z" />
    <glyph glyph-name="gacute" unicode="&#x1f5;" horiz-adv-x="1134" 
d="M631 926q125 0 233 -64t172 -172t64 -233v-504q0 -189 -139.5 -328t-329.5 -139q-128 0 -240.5 67t-173.5 179l-47 92l178 96l49 -90q37 -66 98 -102.5t136 -36.5q114 0 189 74.5t75 187.5v108q-18 -18 -100 -44.5t-164 -26.5q-190 0 -329.5 139t-139.5 328q0 125 64 233
t172 172t233 64zM895 430v27q0 114 -75 188t-189 74t-189 -74t-75 -188q0 -113 75 -187.5t189 -74.5q75 0 135.5 36.5t95.5 102.5l47 90zM729 1350l184 -142l-94 -123l-194 -153l-138 108z" />
    <glyph glyph-name="Ngrave" unicode="&#x1f8;" 
d="M1217 1430v-1440h-158l-692 1007v-1007h-205v1440h155l695 -1008v1008h205zM623 1880l239 -309l-135 -109l-195 154l-94 123z" />
    <glyph glyph-name="ngrave" unicode="&#x1f9;" horiz-adv-x="1134" 
d="M631 926q125 0 233 -64t172 -172t64 -233v-467h-205v467q0 114 -75 188t-189 74t-189 -74t-75 -188v-467h-205v467q0 125 64 233t172 172t233 64zM561 1350l240 -310l-135 -108l-195 153l-94 123z" />
    <glyph glyph-name="Scommaaccent" unicode="&#x218;" 
d="M805 1430q108 0 203.5 -56.5t152 -151t56.5 -202.5v-105h-205v105q0 88 -59 146.5t-148 58.5h-232q-89 0 -147.5 -58.5t-58.5 -146.5q0 -90 58.5 -148.5t147.5 -58.5h232q166 0 289 -123.5t123 -290.5q0 -164 -123 -286.5t-289 -122.5h-232q-166 0 -288.5 122.5
t-122.5 286.5v105h205v-105q0 -88 58.5 -146t147.5 -58h232q89 0 148 58t59 146q0 90 -58.5 148.5t-148.5 58.5h-232q-166 0 -288.5 123.5t-122.5 290.5q0 164 123 287t288 123h232zM647 -412q7 -3 7 -1q0 1 -5 7q-3 3 -4 5q-29 25 -29 65q0 35 29 68q30 26 66 26
q38 0 67 -26q27 -30 27 -68q0 -21 -8 -41l-64 -164l-119 45z" />
    <glyph glyph-name="scommaaccent" unicode="&#x219;" horiz-adv-x="958" 
d="M358 297q10 -42 17.5 -55.5t25.5 -24.5q42 -29 144 -29q101 0 151 33q45 26 45 55q0 25 -10.5 39.5t-36.5 26.5q-66 29 -137 29h-6q-205 0 -293 73q-46 35 -71 86.5t-25 108.5q0 66 37 135q40 69 129 111q75 40 223 43h8q140 0 225 -45q90 -54 125 -117q7 -13 41 -88
l-200 -64q-10 45 -18.5 62t-26.5 31q-40 32 -150 32h-6q-113 0 -148 -32q-36 -31 -36 -68q0 -18 6 -27.5t24 -21.5q49 -27 156 -27q171 0 280 -67q54 -35 83.5 -93t31.5 -127v-6q0 -98 -57 -161q-55 -61 -150 -91q-89 -28 -192 -28h-6q-138 0 -215 39q-90 41 -125 106
q-16 21 -39 92zM506 -412q7 -3 7 -1q0 1 -5 7q-3 3 -4 5q-29 25 -29 65q0 35 29 68q30 26 65 26q39 0 68 -26q27 -30 27 -68q0 -18 -9 -41l-63 -164l-119 45z" />
    <glyph glyph-name="Tcommaaccent" unicode="&#x21a;" 
d="M162 1225v205h1055v-205h-424v-1235h-207v1235h-424zM647 -412q7 -3 7 -1q0 1 -5 7q-3 3 -4 5q-29 25 -29 65q0 35 29 68q30 26 66 26q38 0 67 -26q27 -30 27 -68q0 -21 -8 -41l-64 -164l-119 45z" />
    <glyph glyph-name="tcommaaccent" unicode="&#x21b;" horiz-adv-x="811" 
d="M616 195h156v-205h-156q-156 0 -263 113t-107 278v338h-92v207h92v350h205v-350h159v-207h-159v-338q0 -89 43.5 -137.5t121.5 -48.5zM410 -412q7 -3 7 -1q0 1 -5 7q-3 3 -4 5q-29 25 -29 65q0 35 29 68q30 26 65 26q39 0 68 -26q26 -29 26 -68q0 -21 -8 -41l-63 -164
l-119 45z" />
    <glyph glyph-name="Hcaron" unicode="&#x21e;" 
d="M367 606v-616h-205v1440h205v-617h645v617h205v-1440h-205v616h-645zM420 1714v33l125 106h33l116 -137q-12 -18 4 -2q15 16 60 70q51 60 80 78l149 -127l-121 -148q-101 -120 -116 -127h-113z" />
    <glyph glyph-name="hcaron" unicode="&#x21f;" horiz-adv-x="1134" 
d="M471 926q125 0 233 -64t172 -172t64 -233v-467h-205v467q0 114 -75 188t-189 74t-189 -74t-75 -188v-467h-205v1440h205v-576q18 18 99.5 45t164.5 27zM-158 1874v33l125 106h31l117 -137q-7 -11 -5 -10q4 3 70 78q46 58 78 77l152 -127l-123 -145q-98 -119 -115 -129
h-115z" />
    <glyph glyph-name="commaturnedmod" unicode="&#x2bb;" horiz-adv-x="468" 
d="M387 1253q-10 4 -10 2t10 -12l4 -4q39 -39 39 -94q0 -53 -41 -94q-36 -39 -92 -39q-54 0 -96 39q-39 39 -39 94q0 31 12 59l90 234l170 -66z" />
    <glyph glyph-name="apostrophemod" unicode="&#x2bc;" horiz-adv-x="468" 
d="M205 1184q10 -4 10 -2t-10 12l-4 4q-39 39 -39 94q0 53 41 94q39 39 94 39t94 -39t39 -94q0 -31 -12 -59l-90 -234l-170 66z" />
    <glyph glyph-name="commareversedmod" unicode="&#x2bd;" horiz-adv-x="468" 
d="M387 1184l47 -119l-170 -66l-90 234q-12 28 -12 59q0 55 39 94q42 39 96 39q53 0 92 -39q41 -41 41 -94q0 -55 -39 -94q-17 -17 -13 -17z" />
    <glyph glyph-name="circumflexmod" unicode="&#x2c6;" horiz-adv-x="1030" 
d="M651 1323h115q18 -14 115 -129l123 -145l-152 -129q-36 25 -80 77q-65 77 -68 78q-1 0 5 -10l-117 -135h-31l-125 104v33z" />
    <glyph glyph-name="caronmod" unicode="&#x2c7;" horiz-adv-x="811" 
d="M430 1184v33l125 106h33l114 -137q-8 -12 -3 -9q12 8 69 76q42 53 78 78l151 -127l-123 -147q-101 -119 -114 -127h-115z" />
    <glyph glyph-name="verticallinemod" unicode="&#x2c8;" horiz-adv-x="454" 
d="M403 940h-194v565h194v-565z" />
    <glyph glyph-name="macronmod" unicode="&#x2c9;" horiz-adv-x="1026" 
d="M436 1001v195h565v-195h-565z" />
    <glyph glyph-name="acutemod" unicode="&#x2ca;" horiz-adv-x="444" 
d="M211 1350l184 -142l-94 -123l-195 -153l-135 108z" />
    <glyph glyph-name="gravemod" unicode="&#x2cb;" horiz-adv-x="444" 
d="M154 1350l241 -310l-137 -108l-195 153l-92 123z" />
    <glyph glyph-name="lowverticallinemod" unicode="&#x2cc;" horiz-adv-x="454" 
d="M403 -244h-194v568h194v-568z" />
    <glyph glyph-name="lowmacronmod" unicode="&#x2cd;" horiz-adv-x="854" 
d="M815 -223v-207h-854v207h854z" />
    <glyph glyph-name="lowgravemod" unicode="&#x2ce;" horiz-adv-x="438" 
d="M193 -70l190 -413l-178 -84l-180 229l-72 162z" />
    <glyph glyph-name="lowacutemod" unicode="&#x2cf;" horiz-adv-x="444" 
d="M211 -111l184 -141l-94 -121l-195 -155l-135 108z" />
    <glyph glyph-name="brevemod" unicode="&#x2d8;" horiz-adv-x="688" 
d="M291 1434v-66q0 -41 24 -65q26 -23 64 -23q39 0 65 23q25 25 25 65v66h184v-66q0 -112 -82 -194q-80 -80 -192 -80q-110 0 -193 80q-82 82 -82 194v66h187z" />
    <glyph glyph-name="dotaccentmod" unicode="&#x2d9;" horiz-adv-x="647" 
d="M250 1317q44 0 79.5 -35t35.5 -78q0 -44 -35.5 -79t-79.5 -35q-43 0 -79 35t-36 79q0 43 36 78t79 35z" />
    <glyph glyph-name="ringmod" unicode="&#x2da;" horiz-adv-x="606" 
d="M350 1374q89 0 159.5 -70t70.5 -159q0 -88 -70.5 -159t-159.5 -71t-159 71t-70 159q0 89 70 159t159 70zM350 1083q64 0 64 62q0 61 -64 61q-32 0 -46.5 -14.5t-14.5 -46.5q0 -62 61 -62z" />
    <glyph glyph-name="ogonekmod" unicode="&#x2db;" horiz-adv-x="1024" 
d="M166 -137q11 -4 10 -2q0 1 -10 9q-3 2 -4 3q-39 27 -39 70q0 41 41 71q42 29 94 29q49 0 94 -29q39 -31 39 -71q0 -21 -12 -45l-90 -174l-170 49z" />
    <glyph glyph-name="tildemod" unicode="&#x2dc;" horiz-adv-x="770" 
d="M430 1208l14 -12q11 -7 27 -4q11 3 19.5 13t39.5 57l168 -113q-93 -135 -186 -154q-44 -9 -93 1t-89 36l-15 12q-12 7 -26 5q-11 -2 -20 -12t-40 -58l-168 113q91 133 189 153q95 19 180 -37z" />
    <glyph glyph-name="doubleacutemod" unicode="&#x2dd;" horiz-adv-x="1024" 
d="M-174 1464l184 -141l-94 -123l-195 -153l-135 108zM160 1464l182 -141l-94 -123l-195 -153l-135 108z" />
    <glyph glyph-name="crossmod" unicode="&#x2df;" horiz-adv-x="1056" 
d="M811 1001l199 -210l-109 -93l-188 199l-203 -213l-104 98l210 219l-200 218l108 96l189 -207l190 205l111 -94z" />
    <glyph glyph-name="voicingmod" unicode="&#x2ec;" horiz-adv-x="811" 
d="M430 -197v33l125 107h33l114 -138q-9 -14 -1 -8q13 12 67 76q47 60 78 78l151 -127l-123 -146q-99 -120 -114 -129h-115z" />
    <glyph glyph-name="ringcomb" unicode="&#x30a;" horiz-adv-x="0" 
d="M-1208 1374q89 0 159 -70t70 -159q0 -88 -70 -159t-159 -71t-159.5 71t-70.5 159q0 89 70.5 159t159.5 70zM-1208 1083q63 0 63 62q0 61 -63 61q-32 0 -47 -14.5t-15 -46.5q0 -62 62 -62z" />
    <glyph glyph-name="doubleacutecomb" unicode="&#x30b;" horiz-adv-x="0" 
d="M-1386 1464l184 -141l-94 -123l-195 -153l-135 108zM-1053 1464l183 -141l-95 -123l-194 -153l-135 108z" />
    <glyph glyph-name="caroncomb" unicode="&#x30c;" horiz-adv-x="0" 
d="M-1671 1184v33l125 106h33l114 -137q-8 -12 -3 -9q10 6 69 76q42 53 78 78l151 -127l-123 -147q-101 -119 -114 -127h-115z" />
    <glyph glyph-name="verticallinecomb" unicode="&#x30d;" horiz-adv-x="0" 
d="M-944 940h-195v565h195v-565z" />
    <glyph glyph-name="doubleverticallinecomb" unicode="&#x30e;" horiz-adv-x="0" 
d="M-1083 940h-195v565h195v-565zM-883 940h-194v565h194v-565z" />
    <glyph glyph-name="doublegravecomb" unicode="&#x30f;" horiz-adv-x="0" 
d="M-1444 1462l191 -413l-179 -84l-180 231l-71 160zM-1100 1462l191 -413l-178 -84l-181 231l-71 160z" />
    <glyph glyph-name="turnedcommacomb" unicode="&#x312;" horiz-adv-x="468" 
d="M387 1253q-10 4 -10 2t10 -12l4 -4q39 -39 39 -94q0 -53 -41 -94q-36 -39 -92 -39q-54 0 -96 39q-39 39 -39 94q0 31 12 59l90 234l170 -66z" />
    <glyph glyph-name="commacomb" unicode="&#x313;" horiz-adv-x="468" 
d="M205 1184q10 -4 10 -2t-10 12l-4 4q-39 39 -39 94q0 53 41 94q39 39 94 39t94 -39t39 -94q0 -31 -12 -59l-90 -234l-170 66z" />
    <glyph glyph-name="reversedcommacomb" unicode="&#x314;" horiz-adv-x="468" 
d="M387 1184l47 -119l-170 -66l-90 234q-12 28 -12 59q0 55 39 94q42 39 96 39q53 0 92 -39q41 -41 41 -94q0 -55 -39 -94q-17 -17 -13 -17z" />
    <glyph glyph-name="commaaboverightcomb" unicode="&#x315;" horiz-adv-x="468" 
d="M205 1184q10 -4 10 -2t-10 12l-4 4q-39 39 -39 94q0 53 41 94q39 39 94 39t94 -39t39 -94q0 -31 -12 -59l-90 -234l-170 66z" />
    <glyph glyph-name="gravebelowcomb" unicode="&#x316;" horiz-adv-x="0" 
d="M-1264 -70l191 -413l-178 -84l-181 229l-71 162z" />
    <glyph glyph-name="acutebelowcomb" unicode="&#x317;" horiz-adv-x="0" 
d="M-1206 -111l184 -141l-94 -121l-195 -155l-135 108z" />
    <glyph glyph-name="horncomb" unicode="&#x31b;" horiz-adv-x="468" 
d="M205 1184q10 -4 10 -2t-10 12l-4 4q-39 39 -39 94q0 53 41 94q39 39 94 39t94 -39t39 -94q0 -31 -12 -59l-90 -234l-170 66z" />
    <glyph glyph-name="commaaccentcomb" unicode="&#x326;" horiz-adv-x="0" 
d="M-1090 -412q6 -2 7.5 -1.5t-4.5 6.5q-3 4 -5 6q-26 23 -26 65q0 40 28 68q26 26 66 26q37 0 66 -26q26 -29 26 -68q0 -21 -8 -41l-61 -164l-121 45z" />
    <glyph glyph-name="ogonekcomb" unicode="&#x328;" horiz-adv-x="794" 
d="M684 -375q-244 0 -244 205q0 113 109 254l162 -8q-84 -141 -84 -195q0 -55 100 -55h47l-8 -197z" />
    <glyph glyph-name="quoteleft" unicode="&#x2018;" horiz-adv-x="395" 
d="M354 1430v-170l-22 -287h-201l-22 287v170h245z" />
    <glyph glyph-name="quoteright" unicode="&#x2019;" horiz-adv-x="395" 
d="M354 1430v-170l-22 -287h-201l-22 287v170h245z" />
    <glyph glyph-name="quotereversed" unicode="&#x201b;" horiz-adv-x="395" 
d="M354 1430v-170l-22 -287h-201l-22 287v170h245z" />
    <glyph glyph-name="quotedblleft" unicode="&#x201c;" horiz-adv-x="677" 
d="M354 1430v-170l-22 -287h-201l-22 287v170h245zM645 1430v-170l-22 -287h-199l-23 287v170h244z" />
    <glyph glyph-name="quotedblright" unicode="&#x201d;" horiz-adv-x="677" 
d="M354 1430v-170l-22 -287h-201l-22 287v170h245zM645 1430v-170l-22 -287h-199l-23 287v170h244z" />
    <glyph glyph-name="foursuperior" unicode="&#x2074;" horiz-adv-x="688" 
d="M582 1274v-182h51v-187h-51v-160h-189v160h-309v137l328 467l153 -110l-217 -307h45v182h189z" />
    <glyph glyph-name="lirasign" unicode="&#x20a4;" horiz-adv-x="1263" 
d="M688 1393q122 0 238 -72q28 -20 51 -43l14 -14v-33l-131 -129q-61 55 -90 65q-49 17 -82 17q-76 0 -147 -62q-37 -34 -37 -96v-2q0 -62 24 -115h349l22 -24v-162l-22 -23h-275v43q10 -36 14 -61q0 31 -36 31h297l22 -23v-186h-326q30 0 33 14q-10 -35 -31 -76
q-17 -38 -59 -100q-5 -8 -9 -14t-5 -7l6 7h-74q144 0 246 -99q59 -53 121 -53q81 0 200 125h33l133 -129q-190 -205 -368 -205q-135 0 -262 109q-26 23 -43 30q-26 13 -58 13q-80 0 -203 -72l-53 -37l-127 160q119 106 127 113q80 77 101 100q53 59 73 92q28 45 39 70
l-14 -41h-184v186l22 23h189q0 -19 -5 -19t-12 19q-5 0 -6 -13h-166l-22 23v162l22 24h90q-12 35 -12 109v12q0 104 55 189q13 23 47 57q132 117 291 117z" />
    <glyph glyph-name="pesetasign" unicode="&#x20a7;" horiz-adv-x="2064" 
d="M709 741q88 0 149 70q64 70 64 172t-64 172q-61 70 -149 70h-359v-484h359zM983 621q33 61 27 60q-3 -1 -13 -13q-121 -133 -288 -133h-359v-545h-192v1440h551q169 0 286 -132q119 -131 119 -315v-57h-41v350h207v-350h160v-207h-160v-338q0 -86 45 -137q46 -49 121 -49
h338q102 0 153 26q43 27 43 55q0 46 -45 66q-66 29 -137 29h-8q-205 0 -293 73q-96 75 -96 195q0 70 39 135q37 67 127 111q84 40 225 43h8q140 0 225 -45q85 -49 123 -117q19 -34 21 -39q6 -12 6 -53l-186 -60q-15 69 -45 93q-46 32 -150 32h-6q-108 0 -148 -32
q-34 -31 -34 -68q0 -28 30 -49q46 -27 154 -27q179 0 283 -67q111 -70 114 -220v-6q0 -96 -59 -161t-150 -91q-89 -28 -192 -28h-340q-162 0 -266 110q-107 113 -107 281v338h-90v-98z" />
    <glyph glyph-name="numerosign" unicode="&#x2116;" horiz-adv-x="1875" 
d="M1182 1430v-1440h-158l-692 1007v-1007h-205v1440h156l694 -1008v1008h205zM1606 1456q107 0 190.5 -83t83.5 -189v-168q0 -106 -83.5 -189.5t-190.5 -83.5q-106 0 -190.5 83.5t-84.5 189.5v168q0 105 84.5 188.5t190.5 83.5zM1694 1016v168q0 41 -22.5 63.5t-65.5 22.5
t-65.5 -22.5t-22.5 -63.5v-168q0 -86 88 -86t88 86z" />
    <glyph glyph-name="trademark" unicode="&#x2122;" horiz-adv-x="1755" 
d="M162 1360v158h698v-158h-270v-785h-158v785h-270zM1253 840l322 678h129v-943h-160v510l-241 -510h-101l-241 510v-510h-158v943h129z" />
    <glyph glyph-name="notequalto" unicode="&#x2260;" horiz-adv-x="1085" 
d="M1061 399v-206h-965v206h965zM1061 694v-207h-965v207h965zM975 754l-594 -654l-188 43l595 654z" />
    <glyph glyph-name="nonmarkingreturn.1" horiz-adv-x="0" 
 />
    </font>
</defs>
</svg>
