<?xml version="1.0" standalone="no"?>
<!DOCTYPE svg PUBLIC "-//W3C//DTD SVG 1.1//EN" "http://www.w3.org/Graphics/SVG/1.1/DTD/svg11.dtd" >
<svg xmlns="http://www.w3.org/2000/svg" xmlns:xlink="http://www.w3.org/1999/xlink" version="1.1">
<metadata>
Created by FontForge 20170731 at Sun Jul 25 11:22:22 2021
 By Aleksey,,,
</metadata>
<defs>
<font id="AxboldPro" horiz-adv-x="1232" >
  <font-face 
    font-family="AxboldPro"
    font-weight="400"
    font-style="italic"
    font-stretch="normal"
    units-per-em="2048"
    panose-1="0 0 0 0 0 0 0 0 0 0"
    ascent="1638"
    descent="-410"
    x-height="903"
    cap-height="1434"
    bbox="-1581 -530 2703 2011"
    underline-thickness="102"
    underline-position="-307"
    slope="-12"
    unicode-range="U+000A-2260"
  />
<missing-glyph horiz-adv-x="1079" 
d="M205 1434h874v-1434h-874v1434zM262 1393l379 -633l381 633h-760zM616 717l-368 614v-1231zM643 674l-379 -631h758zM668 717l370 -621v1239z" />
    <glyph glyph-name=".notdef" horiz-adv-x="1079" 
d="M205 1434h874v-1434h-874v1434zM262 1393l379 -633l381 633h-760zM616 717l-368 614v-1231zM643 674l-379 -631h758zM668 717l370 -621v1239z" />
    <glyph glyph-name=".null" horiz-adv-x="0" 
 />
    <glyph glyph-name=".null" horiz-adv-x="0" 
 />
    <glyph glyph-name="nonmarkingreturn" unicode="&#xa;" horiz-adv-x="0" 
 />
    <glyph glyph-name="space" unicode=" " horiz-adv-x="647" 
 />
    <glyph glyph-name="exclam" unicode="!" horiz-adv-x="405" 
d="M393 1434v-400l-20 -764h-135l-21 762v402h176zM305 201q41 0 71 -30t30 -71t-30 -70.5t-71 -29.5t-70.5 29.5t-29.5 70.5t29.5 71t70.5 30z" />
    <glyph glyph-name="quotedbl" unicode="&#x22;" horiz-adv-x="550" 
d="M328 1434v-138l-21 -262h-135l-20 262v138h176zM549 1434v-138l-21 -262h-135l-20 262v138h176z" />
    <glyph glyph-name="numbersign" unicode="#" horiz-adv-x="1124" 
d="M272 336v776h-137v133h137v189h134v-189h458v189h133v-189h138v-133h-138v-776h138v-133h-138v-203h-133v203h-458v-203h-134v203h-137v133h137zM406 1112v-776h458v776h-458z" />
    <glyph glyph-name="dollar" unicode="$" 
d="M780 1434h60q163 0 278 -115t115 -277v-67h-133v67q0 107 -76 183q-75 75 -184 75h-60v-516h60q164 0 278 -114q115 -115 115 -279q0 -161 -115 -276t-278 -115h-60v-152h-133v152h-49q-164 0 -279 115q-114 114 -114 276v68h133v-68q0 -104 78 -182q76 -76 182 -76h49
v516h-49q-165 0 -279 117q-114 114 -114 276q0 163 114 277q115 115 279 115h49v190h133v-190zM780 133h60q108 0 184 76t76 182t-76 182t-184 76h-60v-516zM647 1300h-49q-107 0 -182 -75q-78 -78 -78 -183q0 -104 78 -182q76 -76 182 -76h49v516z" />
    <glyph glyph-name="percent" unicode="%" 
d="M1223 1329l-895 -1300l-111 75l895 1301zM489 868q-118 0 -201 83t-83 200t83 200t201 83q117 0 200 -83t83 -200t-83 -200t-200 -83zM489 1300q-63 0 -106 -43.5t-43 -105.5t43 -106t106 -44q61 0 105.5 44.5t44.5 105.5t-44 105t-106 44zM950 567q117 0 200 -83
t83 -201q0 -117 -83 -200t-200 -83q-118 0 -201 83t-83 200q0 119 83 201.5t201 82.5zM950 135q62 0 106 43.5t44 104.5q0 63 -44 106t-106 43q-63 0 -106 -43t-43 -106q0 -62 43 -105t106 -43z" />
    <glyph glyph-name="ampersand" unicode="&#x26;" horiz-adv-x="1329" 
d="M1202 240l127 -111l-88 -100l-113 98q-117 -127 -286 -127h-244q-163 0 -278 115t-115 278q0 120 68 219t176 142q-123 154 -123 288q0 162 115 277t278 115t278 -115t115 -277q0 -158 -109 -271.5t-266 -119.5q19 -19 51 -47l306 -268q6 27 6 57v258h133v-258
q0 -80 -31 -153zM719 1300q-106 0 -182 -76t-76 -182q0 -107 137 -258h121q107 0 183.5 75.5t76.5 182.5q0 106 -76.5 182t-183.5 76zM842 135q109 0 186 80l-330 289q-124 113 -151 141q-90 -19 -148.5 -89.5t-58.5 -162.5q0 -107 75.5 -182.5t182.5 -75.5h244z" />
    <glyph glyph-name="quotesingle" unicode="'" horiz-adv-x="333" 
d="M328 1434v-138l-21 -262h-135l-20 262v138h176z" />
    <glyph glyph-name="parenleft" unicode="(" horiz-adv-x="759" 
d="M338 186q0 -156 113 -266q110 -113 268 -113v-133q-211 0 -363 152q-151 151 -151 360v988q0 211 151 362q150 150 363 150v-134q-158 0 -268 -110q-113 -113 -113 -268v-988z" />
    <glyph glyph-name="parenright" unicode=")" horiz-adv-x="759" 
d="M586 186v988q0 154 -111 268q-113 110 -270 110v134q214 0 364 -150t150 -362v-988q0 -210 -150 -360q-152 -152 -364 -152v133q157 0 270 113q111 111 111 266z" />
    <glyph glyph-name="asterisk" unicode="*" horiz-adv-x="737" 
d="M557 1122l141 -121l-94 -96l-125 144l15 -189h-134l15 191l-123 -146l-94 92l141 125l-188 -14v135l186 -14l-143 121l94 96l127 -146l-15 193h134l-15 -188l123 143l94 -92l-145 -127l192 14v-135z" />
    <glyph glyph-name="plus" unicode="+" horiz-adv-x="890" 
d="M584 688v-309h-133v309h-312v135h312v312h133v-312h311v-135h-311z" />
    <glyph glyph-name="comma" unicode="," horiz-adv-x="407" 
d="M262 10q-14 5 -26 21q-31 28 -31 69t31 72q29 29 69 29t72 -29q29 -32 29 -72q0 -23 -11 -45l-80 -209l-102 39z" />
    <glyph glyph-name="hyphenminus" unicode="-" horiz-adv-x="890" 
d="M895 823v-135h-756v135h756z" />
    <glyph glyph-name="period" unicode="." horiz-adv-x="407" 
d="M305 201q41 0 71 -30t30 -71t-30 -70.5t-71 -29.5t-70.5 29.5t-29.5 70.5t29.5 71t70.5 30z" />
    <glyph glyph-name="slash" unicode="/" horiz-adv-x="919" 
d="M920 1339l-592 -1300l-123 55l592 1301z" />
    <glyph glyph-name="zero" unicode="0" 
d="M719 1434q140 0 258.5 -68.5t187 -186.5t68.5 -257v-410q0 -139 -68.5 -257t-187 -186.5t-258.5 -68.5q-139 0 -257.5 68.5t-187.5 186.5t-69 257v410q0 139 69 257t187.5 186.5t257.5 68.5zM1100 512v410q0 156 -112 267t-269 111t-269 -111t-112 -267v-410
q0 -157 112 -268t269 -111t269 111t112 268z" />
    <glyph glyph-name="one" unicode="1" horiz-adv-x="460" 
d="M272 1434q77 0 133 -55.5t56 -133.5v-1245h-135v1245q0 23 -16 39t-38 16h-67v134h67z" />
    <glyph glyph-name="two" unicode="2" horiz-adv-x="1378" 
d="M1524 922q0 -123 -56.5 -234t-154.5 -178l-537 -377h748v-133h-1028v102l741 516q71 51 112.5 132.5t41.5 171.5q0 157 -111.5 267.5t-269.5 110.5q-157 0 -268 -110.5t-111 -267.5v-68h-135v68q0 139 69 257t187.5 186.5t257.5 68.5q140 0 258.5 -68.5t187 -186.5
t68.5 -257z" />
    <glyph glyph-name="three" unicode="3" 
d="M1024 737q96 -50 152.5 -142t56.5 -204q0 -161 -115 -276t-278 -115h-242q-163 0 -278 115t-115 276v68h133v-68q0 -106 76.5 -182t183.5 -76h242q107 0 183.5 76t76.5 182q0 107 -76.5 182.5t-183.5 75.5h-195v135h131q107 0 182.5 75.5t75.5 182.5q0 106 -75.5 182
t-182.5 76h-121q-107 0 -183.5 -76t-76.5 -182v-67h-133v67q0 162 115 277t278 115h121q162 0 277.5 -115t115.5 -277q0 -90 -38.5 -169t-106.5 -136z" />
    <glyph glyph-name="four" unicode="4" horiz-adv-x="1294" 
d="M1257 1139v-621h123v-133h-123v-385h-133v385h-747v123l670 952l108 -78l-606 -864h575v621h133z" />
    <glyph glyph-name="five" unicode="5" horiz-adv-x="1230" 
d="M717 1026q139 0 257.5 -68.5t187.5 -187t69 -258.5q0 -139 -69 -257t-187.5 -186.5t-257.5 -68.5q-171 0 -307 100t-185 262l-20 64l129 41l18 -66q37 -120 138 -194t227 -74q157 0 268 111t111 268t-111 268t-268 111q-130 0 -225 -69t-117 -154l-117 4l35 762h862v-134
h-735l-17 -372q138 98 314 98z" />
    <glyph glyph-name="six" unicode="6" 
d="M719 0q-225 0 -369.5 167t-144.5 441q0 157 43.5 291.5t112 226t157.5 159.5t176 103.5t170 45.5l68 8l16 -133l-67 -9q-38 -5 -84 -19t-104 -45t-111 -72.5t-104 -107.5t-83 -145q140 115 324 115q140 0 258.5 -68.5t187 -187t68.5 -258.5q0 -139 -68.5 -257
t-187 -186.5t-258.5 -68.5zM719 133q157 0 269 111t112 268t-112 268t-269 111q-75 0 -139 -26.5t-106.5 -67.5t-72.5 -91.5t-43.5 -98t-13.5 -87.5l2 -22q20 -166 122.5 -265.5t250.5 -99.5z" />
    <glyph glyph-name="seven" unicode="7" horiz-adv-x="1269" 
d="M205 1300v134h1065l-654 -1457l-120 56l567 1267h-858z" />
    <glyph glyph-name="eight" unicode="8" 
d="M1024 739q96 -52 152.5 -144t56.5 -204q0 -161 -115 -276t-278 -115h-242q-163 0 -278 115t-115 276q0 112 56.5 204t152.5 142q-68 57 -107 136t-39 169q0 161 115.5 276.5t278.5 115.5h114q162 0 277.5 -115t115.5 -277q0 -90 -38.5 -169t-106.5 -134zM403 1042
q0 -107 76 -182.5t183 -75.5h114q107 0 182.5 75.5t75.5 182.5q0 106 -75.5 182t-182.5 76h-114q-107 0 -183 -76t-76 -182zM840 133q107 0 183.5 76t76.5 182q0 107 -76.5 182.5t-183.5 75.5h-242q-107 0 -183.5 -75.5t-76.5 -182.5q0 -106 76.5 -182t183.5 -76h242z" />
    <glyph glyph-name="nine" unicode="9" 
d="M719 1442q225 0 369.5 -167t144.5 -441q0 -113 -23 -215.5t-62 -181.5t-92 -146.5t-112.5 -115.5t-124.5 -84t-126.5 -56t-119.5 -27l-67 -8l-17 133l68 8q49 6 109.5 29t132 66t137.5 120t106 174q-139 -114 -323 -114q-140 0 -258.5 68.5t-187 187t-68.5 258.5
q0 139 68.5 257t187 186.5t258.5 68.5zM719 1309q-157 0 -269 -111t-112 -268t112 -268t269 -111q75 0 139 26.5t106.5 67.5t72.5 91.5t43.5 98t13.5 87.5l-2 22q-20 166 -122.5 265.5t-250.5 99.5z" />
    <glyph glyph-name="colon" unicode=":" horiz-adv-x="407" 
d="M305 201q41 0 71 -30t30 -71t-30 -70.5t-71 -29.5t-70.5 29.5t-29.5 70.5t29.5 71t70.5 30zM305 903q41 0 71 -29.5t30 -70.5t-30 -71t-71 -30t-70.5 30t-29.5 71t29.5 70.5t70.5 29.5z" />
    <glyph glyph-name="semicolon" unicode=";" horiz-adv-x="407" 
d="M262 10q-14 5 -26 21q-31 28 -31 69t31 72q29 29 69 29t72 -29q29 -32 29 -72q0 -23 -11 -45l-80 -209l-102 39zM305 903q41 0 71 -29.5t30 -70.5t-30 -71t-71 -30t-70.5 30t-29.5 71t29.5 70.5t70.5 29.5z" />
    <glyph glyph-name="less" unicode="&#x3c;" horiz-adv-x="878" 
d="M877 465v-148l-697 351v80l697 348v-146l-486 -243z" />
    <glyph glyph-name="equal" unicode="=" horiz-adv-x="1060" 
d="M1073 649v-135h-934v135h934zM1073 958v-135h-934v135h934z" />
    <glyph glyph-name="greater" unicode="&#x3e;" horiz-adv-x="878" 
d="M180 465l484 242l-484 243v146l697 -348v-80l-697 -351v148z" />
    <glyph glyph-name="question" unicode="?" 
d="M842 1434q161 0 276 -115.5t115 -276.5q0 -163 -115 -278t-276 -115q-32 0 -41 -14q-15 -30 -15 -76v-285h-135v285q0 58 15 101t35.5 66t49 37t49.5 17.5t42 3.5q106 0 182 75.5t76 182.5q0 106 -76 182t-182 76h-244q-107 0 -182.5 -76t-75.5 -182v-67h-135v67
q0 162 115.5 277t277.5 115h244zM715 201q41 0 70.5 -30t29.5 -71t-29.5 -70.5t-70.5 -29.5t-71 29.5t-30 70.5t30 71t71 30z" />
    <glyph glyph-name="at" unicode="@" horiz-adv-x="1601" 
d="M1202 606v94q0 132 -94 226q-95 92 -225 92q-131 0 -226 -92q-94 -94 -94 -226t94 -223q94 -94 226 -94q176 0 280 168l33 59zM1202 250v131q-137 -131 -319 -131q-187 0 -320 133t-133 317q0 189 133 322q131 131 320 131q188 0 319 -131q133 -133 133 -322v-350
q125 152 125 361q0 241 -172 413q-173 170 -414 170q-240 0 -413 -170q-172 -172 -172 -413q0 -243 172 -412q172 -172 413 -172q150 0 277 68l66 -115q-157 -86 -343 -86q-198 0 -360 98q-165 95 -260 260q-98 162 -98 359q0 198 98 360q91 158 260 260q166 96 360 96
q197 0 363 -96q162 -98 260 -260q96 -166 96 -360q0 -193 -96 -359q-37 -60 -74 -102h-221z" />
    <glyph glyph-name="A" unicode="A" 
d="M338 426v-426h-133v922q0 139 69 257t187.5 186.5t257.5 68.5t257.5 -68.5t187.5 -186.5t69 -257v-922h-133v426h-762zM338 922v-361h762v361q0 156 -112 267t-269 111t-269 -111t-112 -267z" />
    <glyph glyph-name="B" unicode="B" 
d="M1233 430q0 -178 -125.5 -304t-304.5 -126h-598v1434h598q146 0 250 -104.5t104 -250.5q0 -84 -36.5 -157t-100.5 -121q97 -58 155 -156.5t58 -214.5zM338 1300v-440h465q91 0 156 64t65 155t-65 156t-156 65h-465zM338 725v-592h465q123 0 210 87t87 210
q0 122 -87 208.5t-210 86.5h-465z" />
    <glyph glyph-name="C" unicode="C" horiz-adv-x="1478" 
d="M924 0q-141 0 -273.5 53.5t-234.5 157.5q-102 102 -156.5 232t-54.5 274t54.5 274.5t156.5 233.5q138 137 323 186t370 -0.5t323 -187.5l47 -47l-95 -95l-47 47q-112 112 -262.5 151.5t-301.5 0t-263 -151.5q-172 -172 -172 -411q0 -240 172 -412q112 -112 262.5 -151.5
t301.5 0t263 151.5l47 47l95 -94l-47 -47q-102 -104 -234.5 -157.5t-273.5 -53.5z" />
    <glyph glyph-name="D" unicode="D" horiz-adv-x="1349" 
d="M1350 717q0 -145 -57 -278t-153.5 -229t-229.5 -153t-279 -57h-426v1434h426q146 0 279.5 -57t229.5 -153t153 -228.5t57 -278.5zM338 1300v-1167h293q158 0 292.5 78.5t212.5 213t78 292.5t-78 292.5t-212.5 212.5t-292.5 78h-293z" />
    <glyph glyph-name="E" unicode="E" 
d="M1233 133v-133h-1028v1434h1028v-134h-895v-516h739v-135h-739v-516h895z" />
    <glyph glyph-name="F" unicode="F" 
d="M338 649v-649h-133v1434h1028v-134h-895v-516h739v-135h-739z" />
    <glyph glyph-name="G" unicode="G" horiz-adv-x="1642" 
d="M856 784h786v-67q0 -143 -54.5 -274t-155.5 -232q-102 -104 -234.5 -157.5t-273.5 -53.5t-273.5 53.5t-234.5 157.5q-102 102 -156.5 232t-54.5 274t54.5 274.5t156.5 233.5q138 137 323 186t370 -0.5t323 -187.5l47 -47l-95 -95l-47 47q-112 112 -262.5 151.5t-301.5 0
t-263 -151.5q-172 -172 -172 -411q0 -240 172 -412q112 -112 262.5 -151.5t301.5 0t263 151.5q143 143 168 344h-649v135z" />
    <glyph glyph-name="H" unicode="H" 
d="M338 649v-649h-133v1434h133v-650h762v650h133v-1434h-133v649h-762z" />
    <glyph glyph-name="I" unicode="I" horiz-adv-x="337" 
d="M338 0h-133v1434h133v-1434z" />
    <glyph glyph-name="J" unicode="J" horiz-adv-x="786" 
d="M786 512q0 -139 -69 -257t-187.5 -186.5t-257.5 -68.5h-67v133h67q157 0 268 111t111 268v922h135v-922z" />
    <glyph glyph-name="K" unicode="K" horiz-adv-x="1261" 
d="M840 649h-318l-184 -178v-471h-133v1434h133v-775l829 803l95 -96l-600 -582h178q163 0 278 -115t115 -278v-391h-133v391q0 107 -76.5 182.5t-183.5 75.5z" />
    <glyph glyph-name="L" unicode="L" 
d="M719 0q-139 0 -257.5 68.5t-187.5 186.5t-69 257v922h133v-922q0 -157 112 -268t269 -111h514v-133h-514z" />
    <glyph glyph-name="M" unicode="M" horiz-adv-x="1570" 
d="M889 223l573 1211h109v-1434h-133v1069l-508 -1069h-84l-508 1069v-1069h-133v1434h108z" />
    <glyph glyph-name="N" unicode="N" 
d="M1233 1434v-1434h-103l-792 1151v-1151h-133v1434h102l793 -1151v1151h133z" />
    <glyph glyph-name="O" unicode="O" horiz-adv-x="1642" 
d="M924 1434q146 0 279 -57t229 -153t153 -228.5t57 -278.5t-57 -278.5t-153 -228.5t-229 -153t-279 -57t-279.5 57t-229.5 153t-153 228.5t-57 278.5t57 278.5t153 228.5t229.5 153t279.5 57zM924 133q159 0 294 78.5t213 213t78 292.5t-78 292.5t-213 212.5t-294 78
q-158 0 -293 -78t-214 -212.5t-79 -292.5t79 -293t214 -213t293 -78z" />
    <glyph glyph-name="P" unicode="P" 
d="M1233 1004q0 -177 -126 -304t-304 -127h-465v-573h-133v1434h598q179 0 304.5 -126t125.5 -304zM803 709q123 0 210 86.5t87 208.5q0 123 -87 209.5t-210 86.5h-465v-591h465z" />
    <glyph glyph-name="Q" unicode="Q" horiz-adv-x="1701" 
d="M924 0q-146 0 -279.5 57t-229.5 153t-153 228.5t-57 278.5t57 278.5t153 228.5t229.5 153t279.5 57q145 0 278 -57t229.5 -153t153.5 -229t57 -278q0 -259 -165 -457l225 -223l-94 -96l-226 225q-200 -166 -458 -166zM924 1300q-159 0 -294 -78t-213.5 -212.5
t-78.5 -292.5t78.5 -292.5t213.5 -213t294 -78.5q199 0 362 127l-217 217l96 94l217 -217q127 163 127 363q0 158 -78.5 292.5t-213.5 212.5t-293 78z" />
    <glyph glyph-name="R" unicode="R" 
d="M1233 1004q0 -119 -60.5 -218.5t-160.5 -156.5q101 -67 161 -176t60 -234v-219h-133v219q0 146 -105.5 250t-253.5 104h-403v-573h-133v1434h598q179 0 304.5 -126t125.5 -304zM803 709q123 0 210 86.5t87 208.5q0 123 -87 209.5t-210 86.5h-465v-591h465z" />
    <glyph glyph-name="S" unicode="S" 
d="M840 1434q162 0 277.5 -115t115.5 -277v-67h-133v67q0 106 -76.5 182t-183.5 76h-242q-107 0 -183.5 -76t-76.5 -182q0 -107 76.5 -182.5t183.5 -75.5h242q163 0 278 -115t115 -278q0 -161 -115 -276t-278 -115h-242q-163 0 -278 115t-115 276v68h133v-68
q0 -106 76.5 -182t183.5 -76h242q107 0 183.5 76t76.5 182q0 107 -76.5 182.5t-183.5 75.5h-242q-163 0 -278 115t-115 278q0 162 115.5 277t277.5 115h242z" />
    <glyph glyph-name="T" unicode="T" 
d="M205 1300v134h1028v-134h-447v-1300h-135v1300h-446z" />
    <glyph glyph-name="U" unicode="U" 
d="M1100 512v922h133v-922q0 -139 -69 -257t-187.5 -186.5t-257.5 -68.5t-257.5 68.5t-187.5 186.5t-69 257v922h133v-922q0 -157 112 -268t269 -111t269 111t112 268z" />
    <glyph glyph-name="V" unicode="V" horiz-adv-x="1286" 
d="M1286 1434l-493 -1434h-95l-493 1434h141l399 -1162l400 1162h141z" />
    <glyph glyph-name="W" unicode="W" horiz-adv-x="1783" 
d="M1645 1434h139l-428 -1434h-101l-260 870l-262 -870h-98l-430 1434h139l340 -1133l311 1036l310 -1036z" />
    <glyph glyph-name="X" unicode="X" horiz-adv-x="1413" 
d="M809 879l383 555h162l-463 -674l522 -760h-162l-442 641l-442 -641h-162l522 760l-463 674h2h162z" />
    <glyph glyph-name="Y" unicode="Y" 
d="M1100 997v437h133v-437q0 -194 -128.5 -338.5t-318.5 -169.5v-489h-135v489q-190 25 -318 169.5t-128 338.5v437h133v-437q0 -156 112 -266t269 -110t269 110t112 266z" />
    <glyph glyph-name="Z" unicode="Z" horiz-adv-x="1353" 
d="M1354 1434l-895 -1301h835v-133h-1089l895 1300h-834v134h1088z" />
    <glyph glyph-name="bracketleft" unicode="[" horiz-adv-x="694" 
d="M700 -174v-133h-495v2048h495v-133h-362v-1782h362z" />
    <glyph glyph-name="backslash" unicode="\" horiz-adv-x="919" 
d="M205 1339l123 56l592 -1301l-123 -55z" />
    <glyph glyph-name="bracketright" unicode="]" horiz-adv-x="694" 
d="M205 -174h362v1782h-362v133h495v-2048h-495v133z" />
    <glyph glyph-name="asciicircum" unicode="^" horiz-adv-x="694" 
d="M201 983h-131l274 545h72l272 -545h-129l-180 356z" />
    <glyph glyph-name="underscore" unicode="_" horiz-adv-x="1060" 
d="M1077 -20v-136h-1077v136h1077z" />
    <glyph glyph-name="grave" unicode="`" horiz-adv-x="352" 
d="M182 1456l166 -362l-121 -58l-166 213l-57 127z" />
    <glyph glyph-name="a" unicode="a" horiz-adv-x="1110" 
d="M657 903q188 0 320.5 -132.5t132.5 -319.5v-451h-133v131q-63 -63 -146 -97t-174 -34q-187 0 -319.5 132.5t-132.5 318.5q0 187 132.5 319.5t319.5 132.5zM938 301q17 30 28 73.5t11 76.5q0 132 -94 224.5t-226 92.5t-225.5 -92.5t-93.5 -224.5q0 -131 93.5 -224.5
t225.5 -93.5q87 0 163.5 45.5t117.5 122.5z" />
    <glyph glyph-name="b" unicode="b" horiz-adv-x="1110" 
d="M657 903q188 0 320.5 -132.5t132.5 -319.5q0 -186 -133 -318.5t-320 -132.5t-319.5 132.5t-132.5 318.5v983h133v-662q64 62 146.5 96.5t172.5 34.5zM657 133q132 0 226 93.5t94 224.5q0 132 -94 224.5t-226 92.5q-88 0 -163.5 -45t-116.5 -121q-39 -80 -39 -151
q0 -131 93.5 -224.5t225.5 -93.5z" />
    <glyph glyph-name="c" unicode="c" horiz-adv-x="1087" 
d="M971 360l116 -63l-30 -59q-60 -110 -167.5 -174t-232.5 -64q-187 0 -319.5 132.5t-132.5 318.5q0 187 132.5 319.5t319.5 132.5q125 0 232.5 -64t167.5 -173l30 -60l-116 -63l-33 59q-41 76 -117 121t-164 45q-132 0 -225.5 -92.5t-93.5 -224.5q0 -131 93.5 -224.5
t225.5 -93.5q87 0 163.5 45.5t117.5 122.5z" />
    <glyph glyph-name="d" unicode="d" horiz-adv-x="1110" 
d="M977 1434h133v-983q0 -186 -133 -318.5t-320 -132.5t-319.5 132.5t-132.5 318.5q0 187 132.5 319.5t319.5 132.5q90 0 173 -34.5t147 -96.5v662zM977 451q0 75 -39 151q-41 76 -117 121t-164 45q-132 0 -225.5 -92.5t-93.5 -224.5q0 -131 93.5 -224.5t225.5 -93.5
q131 0 224.5 93.5t95.5 224.5z" />
    <glyph glyph-name="e" unicode="e" horiz-adv-x="1110" 
d="M1110 451v-66h-764q24 -109 110.5 -180.5t200.5 -71.5q87 0 163.5 45.5t117.5 122.5l117 -63q-58 -110 -165.5 -174t-232.5 -64q-187 0 -319.5 132.5t-132.5 318.5q0 187 132.5 319.5t319.5 132.5q188 0 320.5 -132.5t132.5 -319.5zM346 518h623q-23 108 -111 179
t-201 71q-114 0 -200.5 -71t-110.5 -179z" />
    <glyph glyph-name="f" unicode="f" horiz-adv-x="864" 
d="M733 1137q-97 0 -156 -64.5t-59 -169.5h311v-135h-311v-768h-135v768h-178v135h178q2 160 100 264.5t250 104.5h131v-135h-131z" />
    <glyph glyph-name="g" unicode="g" horiz-adv-x="1110" 
d="M657 903q188 0 320.5 -132.5t132.5 -319.5v-531q0 -186 -133 -318t-320 -132q-126 0 -232.5 63.5t-166.5 173.5l-31 60l117 63l33 -59q41 -77 117 -122.5t163 -45.5q132 0 226 93t94 224v211q-64 -62 -147 -96.5t-173 -34.5q-187 0 -319.5 132.5t-132.5 318.5
q0 187 132.5 319.5t319.5 132.5zM938 301q39 74 39 150q0 132 -94 224.5t-226 92.5t-225.5 -92.5t-93.5 -224.5q0 -131 93.5 -224.5t225.5 -93.5q87 0 163.5 45.5t117.5 122.5z" />
    <glyph glyph-name="h" unicode="h" horiz-adv-x="1110" 
d="M657 903q188 0 320.5 -132.5t132.5 -319.5v-451h-133v451q0 132 -94 224.5t-226 92.5t-225.5 -92.5t-93.5 -224.5v-451h-133v1434h133v-662q134 131 319 131z" />
    <glyph glyph-name="i" unicode="i" horiz-adv-x="405" 
d="M373 0h-135v903h135v-903zM305 971q-41 0 -70.5 29.5t-29.5 70.5q0 42 29 71t71 29t71.5 -29t29.5 -71q0 -41 -30 -70.5t-71 -29.5z" />
    <glyph glyph-name="j" unicode="j" horiz-adv-x="378" 
d="M-139 -80v983h135v-983q0 -186 -133 -318t-320 -132h-67v133h67q131 0 224.5 93.5t93.5 223.5zM-74 971q-41 0 -70.5 29.5t-29.5 70.5q0 42 29 71t71 29t71.5 -29t29.5 -71q0 -41 -30 -70.5t-71 -29.5z" />
    <glyph glyph-name="k" unicode="k" horiz-adv-x="972" 
d="M657 561q122 -11 204.5 -100.5t82.5 -212.5v-248h-133v248q0 75 -53.5 128.5t-128.5 53.5h-127l-164 -137v-293h-133v1434h133v-967l547 463l88 -103z" />
    <glyph glyph-name="l" unicode="l" horiz-adv-x="458" 
d="M393 133h66v-133h-66q-78 0 -133 55t-55 133v1246h133v-1246q0 -23 16 -39t39 -16z" />
    <glyph glyph-name="m" unicode="m" horiz-adv-x="1353" 
d="M1032 903q132 0 227 -93.5t95 -225.5v-584h-135v584q0 76 -55 130t-132 54t-131.5 -54t-54.5 -130v-584h-135v584q0 77 -54.5 130.5t-132.5 53.5q-77 0 -131.5 -54t-54.5 -130v-584h-133v584q0 132 93.5 225.5t225.5 93.5q77 0 144 -33.5t110 -91.5q45 58 112 91.5
t142 33.5z" />
    <glyph glyph-name="n" unicode="n" horiz-adv-x="1110" 
d="M657 903q188 0 320.5 -132.5t132.5 -319.5v-451h-133v451q0 132 -94 224.5t-226 92.5t-225.5 -92.5t-93.5 -224.5v-451h-133v451q0 187 132.5 319.5t319.5 132.5z" />
    <glyph glyph-name="o" unicode="o" horiz-adv-x="1110" 
d="M657 903q188 0 320.5 -132.5t132.5 -319.5q0 -186 -133 -318.5t-320 -132.5t-319.5 132.5t-132.5 318.5q0 187 132.5 319.5t319.5 132.5zM657 133q132 0 226 93.5t94 224.5q0 132 -94 224.5t-226 92.5t-225.5 -92.5t-93.5 -224.5q0 -131 93.5 -224.5t225.5 -93.5z" />
    <glyph glyph-name="p" unicode="p" horiz-adv-x="1110" 
d="M657 903q188 0 320.5 -132.5t132.5 -319.5q0 -186 -133 -318.5t-320 -132.5q-188 0 -319 131v-661h-133v981q0 187 132.5 319.5t319.5 132.5zM657 133q132 0 225 93.5t93 224.5q0 132 -93 224.5t-225 92.5t-225.5 -92.5t-93.5 -224.5q0 -70 39 -150q41 -77 117 -122.5
t163 -45.5z" />
    <glyph glyph-name="q" unicode="q" horiz-adv-x="1110" 
d="M1110 -530h-133v661q-63 -63 -146 -97t-174 -34q-187 0 -319.5 132.5t-132.5 318.5q0 187 132.5 319.5t319.5 132.5q188 0 320.5 -132.5t132.5 -319.5v-981zM657 133q87 0 163.5 45.5t117.5 122.5q16 27 27.5 70.5t11.5 79.5v4q0 130 -94.5 221.5t-225.5 91.5
q-132 0 -225.5 -92.5t-93.5 -224.5q0 -131 93.5 -224.5t225.5 -93.5z" />
    <glyph glyph-name="r" unicode="r" horiz-adv-x="792" 
d="M760 752q-53 16 -103 16q-130 0 -225 -92q-94 -94 -94 -225v-451h-133v451q0 188 133 321q131 131 319 131q79 0 146 -24z" />
    <glyph glyph-name="s" unicode="s" horiz-adv-x="923" 
d="M342 229q8 -36 51 -65q55 -37 174 -37q118 0 183 41t65 92q0 72 -72 107q-72 34 -161 34h-9q-199 0 -282 68q-86 68 -86 174q0 59 35 121q36 61 116 100q74 38 219 41h9q138 0 217 -43q81 -47 114 -106q9 -15 23 -47l-125 -39q-9 43 -53 75q-55 43 -182 43h-7
q-131 0 -182 -45t-51 -100q0 -52 51 -86q53 -35 184 -35q172 0 275 -65q99 -64 102 -197v-6q0 -87 -51 -141q-50 -56 -139 -84q-92 -29 -191 -29h-6q-134 0 -209 37q-80 37 -114 96q-17 27 -25 51z" />
    <glyph glyph-name="t" unicode="t" horiz-adv-x="770" 
d="M643 133h123v-133h-123q-152 0 -251 105t-99 266v397h-96v135h96v369h135v-369h168v-135h-168v-397q0 -106 59.5 -172t155.5 -66z" />
    <glyph glyph-name="u" unicode="u" horiz-adv-x="1110" 
d="M977 903h133v-452q0 -186 -133 -318.5t-320 -132.5t-319.5 132.5t-132.5 318.5v452h133v-452q0 -131 93.5 -224.5t225.5 -93.5t226 93.5t94 224.5v452z" />
    <glyph glyph-name="v" unicode="v" horiz-adv-x="1193" 
d="M1044 903h150l-455 -903h-82l-452 903h149l344 -686z" />
    <glyph glyph-name="w" unicode="w" horiz-adv-x="1353" 
d="M1219 903h135v-584q0 -132 -95 -225.5t-227 -93.5q-75 0 -142 33.5t-112 91.5q-43 -58 -110 -91.5t-144 -33.5q-132 0 -225.5 93.5t-93.5 225.5v584h133v-584q0 -77 55 -131.5t131 -54.5q78 0 132.5 54.5t54.5 131.5v584h135v-584q0 -77 55 -131.5t131 -54.5q77 0 132 55
t55 131v584z" />
    <glyph glyph-name="x" unicode="x" horiz-adv-x="1296" 
d="M842 492l454 -492h-182l-364 393l-363 -393h-182l454 492l-380 411h182l289 -313l288 313h183z" />
    <glyph glyph-name="y" unicode="y" horiz-adv-x="1110" 
d="M975 903h135v-983q0 -186 -133 -318t-320 -132q-126 0 -232.5 63.5t-166.5 173.5l-31 60l117 63l33 -59q41 -77 117 -122.5t163 -45.5q132 0 225 93t93 224v211q-61 -63 -144 -97t-174 -34q-187 0 -319.5 132.5t-132.5 318.5v452h133v-452q0 -131 93.5 -224.5
t225.5 -93.5q87 0 163.5 45.5t117.5 122.5q16 27 26.5 71.5t10.5 73.5v457z" />
    <glyph glyph-name="z" unicode="z" horiz-adv-x="1228" 
d="M1235 903v-110l-612 -660h684v-133h-881v119l604 649h-573v135h778z" />
    <glyph glyph-name="braceleft" unicode="{" horiz-adv-x="686" 
d="M365 430h133v-274q0 -75 51 -123q48 -51 125 -51v-134q-128 0 -219 91q-90 90 -90 217v274zM365 1378q0 129 90 219q89 89 219 89v-134q-76 0 -125 -49q-51 -51 -51 -125v-350q0 -148 -109 -237q-5 -4 -15.5 -12.5t-15.5 -12.5q5 -3 15.5 -10.5t15.5 -10.5
q109 -89 109 -239v-92h-133v92q0 93 -70 145q-70 49 -168 49v134q100 0 168 51q70 49 70 143v350z" />
    <glyph glyph-name="bar" unicode="|" horiz-adv-x="337" 
d="M338 -205h-133v1843h133v-1843z" />
    <glyph glyph-name="braceright" unicode="}" horiz-adv-x="686" 
d="M436 430v-274q0 -129 -88 -217q-91 -91 -221 -91v134q76 0 127 51q49 49 49 123v274h133zM436 1378v-350q0 -92 72 -143q68 -51 166 -51v-134q-96 0 -166 -49q-72 -54 -72 -145v-92h-133v92q0 150 109 239q5 3 15 10.5t15 10.5q-5 4 -15 12.5t-15 12.5q-109 89 -109 237
v350q0 73 -49 125q-52 49 -127 49v134q132 0 221 -89q88 -88 88 -219z" />
    <glyph glyph-name="asciitilde" unicode="~" horiz-adv-x="899" 
d="M510 672q-109 -71 -231 -47q-123 24 -197 133l111 76q43 -63 112 -78q72 -13 131 26l27 21q109 71 231 47q123 -24 197 -133l-111 -76q-43 63 -112 78q-71 13 -131 -27z" />
    <glyph glyph-name="nbspace" unicode="&#xa0;" horiz-adv-x="647" 
 />
    <glyph glyph-name="exclamdown" unicode="&#xa1;" horiz-adv-x="405" 
d="M217 -530v399l21 764h135l20 -762v-401h-176zM305 702q-41 0 -70.5 30t-29.5 71t29.5 70.5t70.5 29.5t71 -29.5t30 -70.5t-30 -71t-71 -30z" />
    <glyph glyph-name="cent" unicode="&#xa2;" horiz-adv-x="1087" 
d="M971 360l116 -63l-30 -59q-60 -110 -167.5 -174t-232.5 -64q-187 0 -319.5 132.5t-132.5 318.5q0 187 132.5 319.5t319.5 132.5q125 0 232.5 -64t167.5 -173l30 -60l-116 -63l-33 59q-41 76 -117 121t-164 45q-132 0 -225.5 -92.5t-93.5 -224.5q0 -131 93.5 -224.5
t225.5 -93.5q87 0 163.5 45.5t117.5 122.5zM1001 1057l-591 -1301l-123 56l592 1300z" />
    <glyph glyph-name="sterling" unicode="&#xa3;" horiz-adv-x="1214" 
d="M719 1395q118 0 227 -68q28 -20 49 -41l2 -2l-96 -98q-39 36 -82 51q-47 20 -98 20q-100 0 -184 -75q-54 -51 -54 -131v-2q0 -77 43 -164h375v-137h-313v-3q11 -34 16 -61q0 -4 2 -4h295v-137h-301q-3 0 -6 -19q-5 -16 -29 -71q-20 -45 -59 -99q-26 -36 -66 -82h13
q137 0 229 -92q77 -65 156 -65q104 0 229 131l100 -96q-163 -175 -331 -175q-128 0 -248 105q-33 30 -58 41q-40 14 -75 14q-102 0 -236 -82l-26 -16l-84 106q65 58 102 95q97 90 111 108q58 67 79 103q33 44 45 79l7 15h-213v137h2h221q0 6 -21 59q-4 8 -4 9h-196h-2v137h2
h135q-31 88 -31 157v13q0 94 51 176q4 7 43 51q128 113 279 113z" />
    <glyph glyph-name="currency" unicode="&#xa4;" horiz-adv-x="1110" 
d="M571 133q132 0 226 93.5t94 224.5q0 132 -94 224.5t-226 92.5t-225.5 -92.5t-93.5 -224.5q0 -131 93.5 -224.5t225.5 -93.5zM344 844q103 59 227 59q133 0 236 -63l59 63h183l-140 -151q115 -127 115 -301q0 -144 -80 -256l180 -195h-182l-90 96q-122 -96 -281 -96
q-153 0 -272 90l-84 -90h-182l172 186q-86 115 -86 265q0 179 121 309l-134 143h183z" />
    <glyph glyph-name="yen" unicode="&#xa5;" 
d="M1067 997v437h113v-437q0 -194 -109 -338.5t-270 -169.5v-489h-115v489q-162 25 -270.5 169.5t-108.5 338.5v437h113v-437q0 -156 94.5 -266t228.5 -110t229 110t95 266zM1282 272v-135h-1077v135h1077zM1282 543v-135h-1077v135h1077z" />
    <glyph glyph-name="brokenbar" unicode="&#xa6;" horiz-adv-x="337" 
d="M338 733h-133v793h133v-793zM338 -410h-133v793h133v-793z" />
    <glyph glyph-name="section" unicode="&#xa7;" horiz-adv-x="876" 
d="M377 729v-2q0 -71 65 -127q56 -41 117 -41h6q75 0 133 55q52 52 52 113v2q0 70 -58 119q-57 51 -131 51q-75 0 -131 -53q-53 -50 -53 -117zM569 1460q143 0 240 -106q39 -45 51 -72q-118 -59 -125 -59q-7 19 -24 37q-59 65 -142 65q-62 0 -116 -31q-62 -44 -62 -108
q0 -55 45 -84q22 -19 88 -45q72 -23 129 -35q95 -26 160 -100q17 -22 41 -60q31 -67 31 -127v-12q0 -76 -47 -156q-38 -53 -88 -86q27 -18 53 -41q67 -70 67 -161v-13q0 -76 -45 -141q-10 -17 -39 -43q-48 -45 -110 -66q-62 -18 -111 -18h-16q-86 0 -168 49q-78 54 -115 129
l123 60q6 -15 25 -37q55 -64 139 -64h6q61 0 115 31q61 40 61 106q0 52 -43 82q-20 16 -28 19q-41 25 -113 45q-3 1 -76 16q-41 12 -65 27q-31 14 -72 49q-29 29 -41 47q-55 79 -55 166v12q0 75 43 148q12 21 37 49q25 25 53 45q-121 77 -121 209q0 102 74 182q50 43 73 51
q77 41 168 41z" />
    <glyph glyph-name="dieresis" unicode="&#xa8;" horiz-adv-x="720" 
d="M305 1231q41 0 71 -30t30 -71t-30 -70.5t-71 -29.5t-70.5 29.5t-29.5 70.5t29.5 71t70.5 30zM592 1231q41 0 70.5 -30t29.5 -71t-29.5 -70.5t-70.5 -29.5t-70.5 29.5t-29.5 70.5t29.5 71t70.5 30z" />
    <glyph glyph-name="copyright" unicode="&#xa9;" horiz-adv-x="1642" 
d="M977 1358q171 0 318 -86t233 -232.5t86 -316.5t-86 -316.5t-233 -232.5t-318 -86t-318 86t-233 232.5t-86 316.5t86 316.5t233 232.5t318 86zM975 184q149 0 274 72t197 196.5t72 272.5q0 147 -72 271t-197 196t-274 72q-147 0 -271.5 -72t-197 -196t-72.5 -271
q0 -148 72.5 -272.5t197 -196.5t271.5 -72zM967 221q-97 0 -189.5 38t-163.5 110q-70 69 -108.5 160.5t-38.5 191.5q0 204 147 354q95 94 224 127t258.5 -0.5t224.5 -128.5l47 -47l-92 -90l-47 45q-109 109 -261.5 109t-262.5 -109q-109 -112 -109 -260q0 -151 109 -260
q110 -110 262.5 -110t261.5 110l47 45l92 -92l-47 -45q-71 -72 -164 -110t-190 -38z" />
    <glyph glyph-name="ordfeminine" unicode="&#xaa;" horiz-adv-x="825" 
d="M522 1442q132 0 225 -93t93 -225v-315h-92v90q-93 -90 -226 -90q-132 0 -224.5 92t-92.5 223q0 132 92.5 225t224.5 93zM748 1059v65q0 92 -67 158t-159 66t-157.5 -66t-65.5 -158t65.5 -157.5t157.5 -65.5q61 0 114.5 32.5t82.5 86.5l22 41z" />
    <glyph glyph-name="guillemotleft" unicode="&#xab;" horiz-adv-x="1243" 
d="M238 387v107l276 182l111 72l75 -115l-292 -193q282 -185 292 -192l-75 -115q-14 9 -43 29l-224 145zM723 387v107l276 182l111 72l76 -115l-291 -193q74 -49 152 -100t107 -70t32 -22l-74 -115q-4 0 -43 29l-223 145z" />
    <glyph glyph-name="logicalnot" unicode="&#xac;" horiz-adv-x="999" 
d="M862 672h-559v137h698v-459h-139v322z" />
    <glyph glyph-name="softhyphen" unicode="&#xad;" horiz-adv-x="890" 
d="M895 823v-135h-756v135h756z" />
    <glyph glyph-name="registered" unicode="&#xae;" horiz-adv-x="1642" 
d="M1083 741q75 0 127 52t52 127t-52 127q-51 51 -127 51h-292v-357h292zM791 227q98 -43 217 -43q137 0 254 60v147q0 92 -64 156q-63 63 -156 63h-251v-383zM1393 342q157 157 157 383t-157 383q-156 156 -385 156q-107 0 -197 -35h272q125 0 217 -92q93 -93 93 -217
q0 -88 -39 -156q-41 -71 -90 -98q47 -31 90 -109q39 -74 39 -166v-49zM662 1141l-37 -33q-158 -158 -158 -383t158 -383q6 -6 18.5 -17.5t18.5 -17.5v834zM1010 1358q263 0 450 -187t187 -448q0 -260 -187 -447q-188 -188 -450 -188q-261 0 -449 188t-188 447q0 260 188 448
q187 187 449 187z" />
    <glyph glyph-name="macron" unicode="&#xaf;" horiz-adv-x="817" 
d="M817 1436v-136h-817v136h817z" />
    <glyph glyph-name="degree" unicode="&#xb0;" horiz-adv-x="557" 
d="M365 1458q82 0 141 -59.5t59 -141.5q0 -80 -59.5 -140t-140.5 -60t-141 60t-60 140q0 82 59.5 141.5t141.5 59.5zM365 1151q46 0 76 30t30 76t-30 76.5t-76 30.5t-76.5 -30.5t-30.5 -76.5t30.5 -76t76.5 -30z" />
    <glyph glyph-name="plusminus" unicode="&#xb1;" horiz-adv-x="890" 
d="M584 821v-309h-133v309h-312v135h312v312h133v-312h311v-135h-311zM895 399v-135h-756v135h756z" />
    <glyph glyph-name="twosuperior" unicode="&#xb2;" horiz-adv-x="651" 
d="M647 1214q0 -58 -27.5 -112t-74.5 -86l-154 -109h256v-114h-495v88l329 227q54 41 54 106q0 58 -38.5 96t-97.5 38q-58 0 -95.5 -37.5t-37.5 -96.5v-57h-114v57q0 100 74 174t173 74q100 0 174 -74t74 -174z" />
    <glyph glyph-name="threesuperior" unicode="&#xb3;" horiz-adv-x="573" 
d="M508 1141q20 -9 42.5 -55.5t22.5 -96.5q0 -78 -58.5 -137t-137.5 -59h-103q-78 0 -137 59t-59 137v58h115v-58q0 -37 22 -59.5t59 -22.5h103q38 0 61 22.5t23 59.5t-23 58.5t-61 21.5h-111v117h84q37 0 59.5 21.5t22.5 58.5t-22.5 59.5t-59.5 22.5h-51q-37 0 -59.5 -22.5
t-22.5 -59.5v-58h-115v58q0 78 59.5 137t137.5 59h51q78 0 137.5 -59t59.5 -137q0 -38 -14.5 -76.5t-24.5 -48.5z" />
    <glyph glyph-name="acute" unicode="&#xb4;" horiz-adv-x="352" 
d="M229 1452l127 -98l-69 -90l-176 -142l-86 70z" />
    <glyph glyph-name="mu" unicode="&#xb5;" horiz-adv-x="1153" 
d="M461 74v-473h-137v1347l2 2h133v-2h2v-600q0 -155 168 -201q31 -8 114 -8q101 0 154 27q79 39 102 104q15 58 15 90v586v2h135l2 -2v-928l-2 -4h-135v2v97q-116 -113 -279 -113q-174 0 -274 74z" />
    <glyph glyph-name="paragraph" unicode="&#xb6;" horiz-adv-x="1120" 
d="M844 100v1117h-168v-1117h-139v564q-134 18 -220 98q-100 90 -100 244q0 157 107 251q106 97 284 97h443v-137h-70v-1117h-137z" />
    <glyph glyph-name="periodcentered" unicode="&#xb7;" horiz-adv-x="647" 
d="M289 803q35 0 60.5 -25.5t25.5 -60.5t-25.5 -60.5t-60.5 -25.5t-59.5 25.5t-24.5 60.5t24.5 60.5t59.5 25.5z" />
    <glyph glyph-name="cedilla" unicode="&#xb8;" horiz-adv-x="765" 
d="M618 -334q-68 0 -118 62q-8 5 -8 8l81 59q20 -26 45 -26q24 0 35 14q13 16 13 27q0 13 -11 24q-9 12 -28 12q-7 0 -101 -32l37 186h103l-13 -59q68 -9 95 -62q18 -35 18 -69q0 -62 -45 -101q-46 -43 -103 -43z" />
    <glyph glyph-name="onesuperior" unicode="&#xb9;" horiz-adv-x="294" 
d="M176 1462q41 0 75 -33.5t34 -74.5v-561h-115v561l6 -6h-57v114h57z" />
    <glyph glyph-name="ordmasculine" unicode="&#xba;" horiz-adv-x="643" 
d="M395 1462q100 0 174 -74t74 -174v-174q0 -100 -74 -173.5t-174 -73.5q-99 0 -173.5 74t-74.5 173v174q0 99 74.5 173.5t173.5 74.5zM530 1040v174q0 58 -38 96t-97 38q-58 0 -95.5 -37.5t-37.5 -96.5v-174q0 -58 37 -95.5t96 -37.5t97 37.5t38 95.5z" />
    <glyph glyph-name="guillemotright" unicode="&#xbb;" horiz-adv-x="1243" 
d="M1186 387l-121 -80l-223 -145l-43 -29l-76 115q3 2 293 192l-293 193q25 39 76 115l110 -72l277 -182v-107zM700 387l-122 -80l-224 -145l-41 -29l-75 115q3 3 292 192l-292 193q24 39 75 115l111 -72l276 -182v-107z" />
    <glyph glyph-name="onequarter" unicode="&#xbc;" horiz-adv-x="1083" 
d="M176 1462q41 0 75 -33.5t34 -74.5v-561h-115v561l6 -6h-57v114h57zM1008 473v-190h55v-117h-55v-168h-115v168h-326v92l314 447l94 -68l-248 -354h166v190h115zM877 1339l-592 -1300l-123 55l592 1301z" />
    <glyph glyph-name="onehalf" unicode="&#xbd;" horiz-adv-x="1083" 
d="M176 1462q41 0 75 -33.5t34 -74.5v-561h-115v561l6 -6h-57v114h57zM877 1339l-592 -1300l-123 55l592 1301zM1049 422q0 -57 -28 -112t-75 -87l-153 -108h256v-115h-496v88l330 227q53 40 53 107q0 58 -38 95.5t-97 37.5t-96 -37.5t-37 -95.5v-57h-115v57
q0 99 74.5 173.5t173.5 74.5q100 0 174 -74t74 -174z" />
    <glyph glyph-name="threequarters" unicode="&#xbe;" horiz-adv-x="1269" 
d="M1192 473v-190h55v-117h-55v-168h-115v168h-325v92l313 447l94 -68l-248 -354h166v190h115zM1061 1339l-592 -1300l-123 55l592 1301zM508 1141q20 -9 42.5 -55.5t22.5 -96.5q0 -78 -58.5 -137t-137.5 -59h-103q-78 0 -137 59t-59 137v58h115v-58q0 -37 22 -59.5
t59 -22.5h103q38 0 61 22.5t23 59.5t-23 58.5t-61 21.5h-111v117h84q37 0 59.5 21.5t22.5 58.5t-22.5 59.5t-59.5 22.5h-51q-37 0 -59.5 -22.5t-22.5 -59.5v-58h-115v58q0 78 59.5 137t137.5 59h51q78 0 137.5 -59t59.5 -137q0 -38 -14.5 -76.5t-24.5 -48.5z" />
    <glyph glyph-name="questiondown" unicode="&#xbf;" 
d="M596 -530q-161 0 -276 115t-115 276q0 163 115 278t276 115q32 0 41 14q14 28 14 76v285h135v-285q0 -58 -14.5 -101t-35.5 -66t-49 -37t-49 -17.5t-42 -3.5q-106 0 -182 -75.5t-76 -182.5q0 -106 76 -182t182 -76h244q107 0 182.5 76t75.5 182v67h135v-67
q0 -161 -115 -276t-278 -115h-244zM723 702q-41 0 -70.5 30t-29.5 71t29.5 70.5t70.5 29.5t70.5 -29.5t29.5 -70.5t-29.5 -71t-70.5 -30z" />
    <glyph glyph-name="Agrave" unicode="&#xc0;" 
d="M338 426v-426h-133v922q0 139 69 257t187.5 186.5t257.5 68.5t257.5 -68.5t187.5 -186.5t69 -257v-922h-133v426h-762zM338 922v-361h762v361q0 156 -112 267t-269 111t-269 -111t-112 -267zM627 1819l202 -260l-86 -70l-176 141l-69 90z" />
    <glyph glyph-name="Aacute" unicode="&#xc1;" 
d="M338 426v-426h-133v922q0 139 69 257t187.5 186.5t257.5 68.5t257.5 -68.5t187.5 -186.5t69 -257v-922h-133v426h-762zM338 922v-361h762v361q0 156 -112 267t-269 111t-269 -111t-112 -267zM811 1819l129 -99l-70 -90l-176 -141l-86 70z" />
    <glyph glyph-name="Acircumflex" unicode="&#xc2;" 
d="M338 426v-426h-133v922q0 139 69 257t187.5 186.5t257.5 68.5t257.5 -68.5t187.5 -186.5t69 -257v-922h-133v426h-762zM338 922v-361h762v361q0 156 -112 267t-269 111t-269 -111t-112 -267zM676 1851h88q1 -1 10.5 -12t37.5 -44t54 -64l103 -123l-105 -88q-1 0 -49 57
q-94 111 -96 113l-144 -170l-106 88z" />
    <glyph glyph-name="Atilde" unicode="&#xc3;" 
d="M338 426v-426h-133v922q0 139 69 257t187.5 186.5t257.5 68.5t257.5 -68.5t187.5 -186.5t69 -257v-922h-133v426h-762zM338 922v-361h762v361q0 156 -112 267t-269 111t-269 -111t-112 -267zM748 1739l16 -13q26 -18 59 -12q18 5 31.5 16t34.5 42l108 -74
q-66 -93 -149 -111q-84 -16 -158 33l-16 12q-28 19 -60 13q-17 -3 -30 -14.5t-35 -43.5l-109 74q66 96 150 111q84 16 158 -33z" />
    <glyph glyph-name="Adieresis" unicode="&#xc4;" 
d="M338 426v-426h-133v922q0 139 69 257t187.5 186.5t257.5 68.5t257.5 -68.5t187.5 -186.5t69 -257v-922h-133v426h-762zM338 922v-361h762v361q0 156 -112 267t-269 111t-269 -111t-112 -267zM575 1761q41 0 71 -29.5t30 -70.5t-30 -70.5t-71 -29.5t-70.5 29.5t-29.5 70.5
t29.5 70.5t70.5 29.5zM862 1761q41 0 71 -29.5t30 -70.5t-30 -70.5t-71 -29.5t-70.5 29.5t-29.5 70.5t29.5 70.5t70.5 29.5z" />
    <glyph glyph-name="Aring" unicode="&#xc5;" 
d="M338 426v-426h-133v922q0 139 69 257t187.5 186.5t257.5 68.5t257.5 -68.5t187.5 -186.5t69 -257v-922h-133v426h-762zM338 922v-361h762v361q0 156 -112 267t-269 111t-269 -111t-112 -267zM719 1907q82 0 141.5 -59.5t59.5 -141.5q0 -80 -60 -140.5t-141 -60.5
t-141 60.5t-60 140.5q0 82 59.5 141.5t141.5 59.5zM719 1599q46 0 76 30.5t30 76.5t-30 76t-76 30t-76.5 -30t-30.5 -76t30.5 -76.5t76.5 -30.5z" />
    <glyph glyph-name="AE" unicode="&#xc6;" horiz-adv-x="2142" 
d="M338 426v-426h-133v922q0 139 69 257t187.5 186.5t257.5 68.5t257.5 -68.5t187.5 -186.5t69 -257v-922h-133v426h-762zM338 922v-361h762v361q0 156 -112 267t-269 111t-269 -111t-112 -267zM2134 133v-133h-1028v1434h1028v-134h-895v-516h739v-135h-739v-516h895z" />
    <glyph glyph-name="Ccedilla" unicode="&#xc7;" horiz-adv-x="1478" 
d="M924 0q-141 0 -273.5 53.5t-234.5 157.5q-102 102 -156.5 232t-54.5 274t54.5 274.5t156.5 233.5q138 137 323 186t370 -0.5t323 -187.5l47 -47l-95 -95l-47 47q-112 112 -262.5 151.5t-301.5 0t-263 -151.5q-172 -172 -172 -411q0 -240 172 -412q112 -112 262.5 -151.5
t301.5 0t263 151.5l47 47l95 -94l-47 -47q-102 -104 -234.5 -157.5t-273.5 -53.5zM831 -334q-68 0 -118 62q-8 5 -8 8l81 59q20 -26 45 -26q24 0 35 14q13 16 13 27q0 13 -11 24q-9 12 -28 12q-7 0 -101 -32l37 186h103l-13 -59q68 -9 95 -62q18 -35 18 -69q0 -62 -45 -101
q-46 -43 -103 -43z" />
    <glyph glyph-name="Egrave" unicode="&#xc8;" 
d="M1233 133v-133h-1028v1434h1028v-134h-895v-516h739v-135h-739v-516h895zM627 1819l202 -260l-86 -70l-176 141l-69 90z" />
    <glyph glyph-name="Eacute" unicode="&#xc9;" 
d="M1233 133v-133h-1028v1434h1028v-134h-895v-516h739v-135h-739v-516h895zM811 1819l129 -99l-70 -90l-176 -141l-86 70z" />
    <glyph glyph-name="Ecircumflex" unicode="&#xca;" 
d="M1233 133v-133h-1028v1434h1028v-134h-895v-516h739v-135h-739v-516h895zM676 1851h88q1 -1 10.5 -12t37.5 -44t54 -64l103 -123l-105 -88q-1 0 -49 57q-94 111 -96 113l-144 -170l-106 88z" />
    <glyph glyph-name="Edieresis" unicode="&#xcb;" 
d="M1233 133v-133h-1028v1434h1028v-134h-895v-516h739v-135h-739v-516h895zM575 1761q41 0 71 -29.5t30 -70.5t-30 -70.5t-71 -29.5t-70.5 29.5t-29.5 70.5t29.5 70.5t70.5 29.5zM862 1761q41 0 71 -29.5t30 -70.5t-30 -70.5t-71 -29.5t-70.5 29.5t-29.5 70.5t29.5 70.5
t70.5 29.5z" />
    <glyph glyph-name="Igrave" unicode="&#xcc;" horiz-adv-x="337" 
d="M182 0h-133v1434h133v-1434zM23 1819l204 -260l-88 -70l-174 141l-71 90z" />
    <glyph glyph-name="Iacute" unicode="&#xcd;" horiz-adv-x="337" 
d="M293 0h-133v1434h133v-1434zM319 1819l130 -99l-72 -90l-174 -141l-88 70z" />
    <glyph glyph-name="Icircumflex" unicode="&#xce;" horiz-adv-x="337" 
d="M156 0h-133v1434h133v-1434zM45 1851h88q23 -23 103 -120l102 -123l-105 -88q-1 0 -5.5 5.5t-16.5 21t-25 30.5q-28 32 -51.5 59.5t-34.5 40.5l-10 13l-145 -170l-105 88z" />
    <glyph glyph-name="Idieresis" unicode="&#xcf;" horiz-adv-x="337" 
d="M162 0h-133v1434h133v-1434zM-47 1761q41 0 70.5 -29.5t29.5 -70.5t-29.5 -70.5t-70.5 -29.5t-70.5 29.5t-29.5 70.5t29.5 70.5t70.5 29.5zM240 1761q41 0 70.5 -29.5t29.5 -70.5t-29.5 -70.5t-70.5 -29.5t-71 29.5t-30 70.5t30 70.5t71 29.5z" />
    <glyph glyph-name="Eth" unicode="&#xd0;" horiz-adv-x="1349" 
d="M1006 717q0 -145 -57 -278t-153.5 -229t-229.5 -153t-279 -57h-426v1434h426q146 0 279.5 -57t229.5 -153t153 -228.5t57 -278.5zM-6 1300v-1167h293q158 0 292.5 78.5t212.5 213t78 292.5t-78 292.5t-212.5 212.5t-292.5 78h-293zM594 784v-135h-1077v135h1077z" />
    <glyph glyph-name="Ntilde" unicode="&#xd1;" 
d="M1233 1434v-1434h-103l-792 1151v-1151h-133v1434h102l793 -1151v1151h133zM748 1739l16 -13q26 -18 59 -12q18 5 31.5 16t34.5 42l108 -74q-66 -93 -149 -111q-84 -16 -158 33l-16 12q-28 19 -60 13q-17 -3 -30 -14.5t-35 -43.5l-109 74q66 96 150 111q84 16 158 -33z
" />
    <glyph glyph-name="Ograve" unicode="&#xd2;" horiz-adv-x="1642" 
d="M924 1434q146 0 279 -57t229 -153t153 -228.5t57 -278.5t-57 -278.5t-153 -228.5t-229 -153t-279 -57t-279.5 57t-229.5 153t-153 228.5t-57 278.5t57 278.5t153 228.5t229.5 153t279.5 57zM924 133q159 0 294 78.5t213 213t78 292.5t-78 292.5t-213 212.5t-294 78
q-158 0 -293 -78t-214 -212.5t-79 -292.5t79 -293t214 -213t293 -78zM831 1819l203 -260l-86 -70l-176 141l-70 90z" />
    <glyph glyph-name="Oacute" unicode="&#xd3;" horiz-adv-x="1642" 
d="M924 1434q146 0 279 -57t229 -153t153 -228.5t57 -278.5t-57 -278.5t-153 -228.5t-229 -153t-279 -57t-279.5 57t-229.5 153t-153 228.5t-57 278.5t57 278.5t153 228.5t229.5 153t279.5 57zM924 133q159 0 294 78.5t213 213t78 292.5t-78 292.5t-213 212.5t-294 78
q-158 0 -293 -78t-214 -212.5t-79 -292.5t79 -293t214 -213t293 -78zM1016 1819l129 -99l-70 -90l-176 -141l-86 70z" />
    <glyph glyph-name="Ocircumflex" unicode="&#xd4;" horiz-adv-x="1642" 
d="M924 1434q146 0 279 -57t229 -153t153 -228.5t57 -278.5t-57 -278.5t-153 -228.5t-229 -153t-279 -57t-279.5 57t-229.5 153t-153 228.5t-57 278.5t57 278.5t153 228.5t229.5 153t279.5 57zM924 133q159 0 294 78.5t213 213t78 292.5t-78 292.5t-213 212.5t-294 78
q-158 0 -293 -78t-214 -212.5t-79 -292.5t79 -293t214 -213t293 -78zM881 1851h88q1 -1 10.5 -12t37.5 -44t54 -64l103 -123l-105 -88q-1 0 -49 57q-94 111 -96 113l-144 -170l-106 88z" />
    <glyph glyph-name="Otilde" unicode="&#xd5;" horiz-adv-x="1642" 
d="M924 1434q146 0 279 -57t229 -153t153 -228.5t57 -278.5t-57 -278.5t-153 -228.5t-229 -153t-279 -57t-279.5 57t-229.5 153t-153 228.5t-57 278.5t57 278.5t153 228.5t229.5 153t279.5 57zM924 133q159 0 294 78.5t213 213t78 292.5t-78 292.5t-213 212.5t-294 78
q-158 0 -293 -78t-214 -212.5t-79 -292.5t79 -293t214 -213t293 -78zM952 1739l17 -13q26 -18 59 -12q18 5 31.5 16t34.5 42l108 -74q-66 -93 -149 -111q-84 -16 -158 33l-16 12q-28 19 -60 13q-17 -3 -30 -14.5t-35 -43.5l-109 74q66 96 150 111q83 16 157 -33z" />
    <glyph glyph-name="Odieresis" unicode="&#xd6;" horiz-adv-x="1642" 
d="M924 1434q146 0 279 -57t229 -153t153 -228.5t57 -278.5t-57 -278.5t-153 -228.5t-229 -153t-279 -57t-279.5 57t-229.5 153t-153 228.5t-57 278.5t57 278.5t153 228.5t229.5 153t279.5 57zM924 133q159 0 294 78.5t213 213t78 292.5t-78 292.5t-213 212.5t-294 78
q-158 0 -293 -78t-214 -212.5t-79 -292.5t79 -293t214 -213t293 -78zM780 1761q41 0 71 -29.5t30 -70.5t-30 -70.5t-71 -29.5t-70.5 29.5t-29.5 70.5t29.5 70.5t70.5 29.5zM1067 1761q41 0 70.5 -29.5t29.5 -70.5t-29.5 -70.5t-70.5 -29.5t-70.5 29.5t-29.5 70.5t29.5 70.5
t70.5 29.5z" />
    <glyph glyph-name="multiply" unicode="&#xd7;" horiz-adv-x="1296" 
d="M981 819l293 -315l-100 -86l-285 303l-307 -322l-99 93l316 327l-299 324l100 88l289 -313l289 313l102 -88z" />
    <glyph glyph-name="Oslash" unicode="&#xd8;" horiz-adv-x="1642" 
d="M924 1434q146 0 279 -57t229 -153t153 -228.5t57 -278.5t-57 -278.5t-153 -228.5t-229 -153t-279 -57t-279.5 57t-229.5 153t-153 228.5t-57 278.5t57 278.5t153 228.5t229.5 153t279.5 57zM924 133q159 0 294 78.5t213 213t78 292.5t-78 292.5t-213 212.5t-294 78
q-158 0 -293 -78t-214 -212.5t-79 -292.5t79 -293t214 -213t293 -78zM1282 1339l-592 -1300l-123 55l592 1301z" />
    <glyph glyph-name="Ugrave" unicode="&#xd9;" 
d="M1100 512v922h133v-922q0 -139 -69 -257t-187.5 -186.5t-257.5 -68.5t-257.5 68.5t-187.5 186.5t-69 257v922h133v-922q0 -157 112 -268t269 -111t269 111t112 268zM627 1819l202 -260l-86 -70l-176 141l-69 90z" />
    <glyph glyph-name="Uacute" unicode="&#xda;" 
d="M1100 512v922h133v-922q0 -139 -69 -257t-187.5 -186.5t-257.5 -68.5t-257.5 68.5t-187.5 186.5t-69 257v922h133v-922q0 -157 112 -268t269 -111t269 111t112 268zM811 1819l129 -99l-70 -90l-176 -141l-86 70z" />
    <glyph glyph-name="Ucircumflex" unicode="&#xdb;" 
d="M1100 512v922h133v-922q0 -139 -69 -257t-187.5 -186.5t-257.5 -68.5t-257.5 68.5t-187.5 186.5t-69 257v922h133v-922q0 -157 112 -268t269 -111t269 111t112 268zM676 1851h88q1 -1 10.5 -12t37.5 -44t54 -64l103 -123l-105 -88q-1 0 -49 57q-94 111 -96 113l-144 -170
l-106 88z" />
    <glyph glyph-name="Udieresis" unicode="&#xdc;" 
d="M1100 512v922h133v-922q0 -139 -69 -257t-187.5 -186.5t-257.5 -68.5t-257.5 68.5t-187.5 186.5t-69 257v922h133v-922q0 -157 112 -268t269 -111t269 111t112 268zM575 1761q41 0 71 -29.5t30 -70.5t-30 -70.5t-71 -29.5t-70.5 29.5t-29.5 70.5t29.5 70.5t70.5 29.5z
M862 1761q41 0 71 -29.5t30 -70.5t-30 -70.5t-71 -29.5t-70.5 29.5t-29.5 70.5t29.5 70.5t70.5 29.5z" />
    <glyph glyph-name="Yacute" unicode="&#xdd;" 
d="M1100 997v437h133v-437q0 -194 -128.5 -338.5t-318.5 -169.5v-489h-135v489q-190 25 -318 169.5t-128 338.5v437h133v-437q0 -156 112 -266t269 -110t269 110t112 266zM811 1819l129 -99l-70 -90l-176 -141l-86 70z" />
    <glyph glyph-name="Thorn" unicode="&#xde;" 
d="M1233 803q0 -177 -126 -303.5t-304 -126.5h-465v-574h-133v1434h598q117 0 216 -57.5t156.5 -156.5t57.5 -216zM803 508q123 0 210 86.5t87 208.5q0 123 -87 210t-210 87h-465v-592h465zM338 0h-133v1434h133v-1434z" />
    <glyph glyph-name="germandbls" unicode="&#xdf;" horiz-adv-x="1302" 
d="M707 1462h10q195 0 321 -94q92 -83 92 -199q0 -127 -112 -266q-62 -92 -62 -135v-6q0 -70 158 -144q87 -51 152 -114q96 -104 96 -203v-18q0 -105 -100 -205q-127 -115 -289 -115h-2q-225 0 -365 227l-2 3l117 71q101 -162 252 -162q116 0 203 84q47 56 47 99v12
q0 112 -248 240q-156 95 -156 221v10q0 108 131 276q43 70 43 127q0 128 -235 152h-43h-8q-183 0 -248 -141q-13 -37 -13 -52v-1126l-4 -4h-133l-2 4v1135q0 59 60 161q116 162 340 162z" />
    <glyph glyph-name="agrave" unicode="&#xe0;" horiz-adv-x="1110" 
d="M657 903q188 0 320.5 -132.5t132.5 -319.5v-451h-133v131q-63 -63 -146 -97t-174 -34q-187 0 -319.5 132.5t-132.5 318.5q0 187 132.5 319.5t319.5 132.5zM977 356v95q0 132 -94 224.5t-226 92.5t-225.5 -92.5t-93.5 -224.5q0 -131 93.5 -224.5t225.5 -93.5
q87 0 163.5 45.5t117.5 122.5l33 59zM565 1288l203 -260l-86 -70l-176 142l-70 90z" />
    <glyph glyph-name="aacute" unicode="&#xe1;" horiz-adv-x="1110" 
d="M657 903q188 0 320.5 -132.5t132.5 -319.5v-451h-133v131q-63 -63 -146 -97t-174 -34q-187 0 -319.5 132.5t-132.5 318.5q0 187 132.5 319.5t319.5 132.5zM977 356v95q0 132 -94 224.5t-226 92.5t-225.5 -92.5t-93.5 -224.5q0 -131 93.5 -224.5t225.5 -93.5
q87 0 163.5 45.5t117.5 122.5l33 59zM750 1288l129 -98l-70 -90l-176 -142l-86 70z" />
    <glyph glyph-name="acircumflex" unicode="&#xe2;" horiz-adv-x="1110" 
d="M657 903q188 0 320.5 -132.5t132.5 -319.5v-451h-133v131q-63 -63 -146 -97t-174 -34q-187 0 -319.5 132.5t-132.5 318.5q0 187 132.5 319.5t319.5 132.5zM977 356v95q0 132 -94 224.5t-226 92.5t-225.5 -92.5t-93.5 -224.5q0 -131 93.5 -224.5t225.5 -93.5
q87 0 163.5 45.5t117.5 122.5l33 59zM614 1321h88q1 -1 103 -121l102 -123l-104 -88l-49 58q-83 98 -97 112l-143 -170l-106 88z" />
    <glyph glyph-name="atilde" unicode="&#xe3;" horiz-adv-x="1110" 
d="M657 903q188 0 320.5 -132.5t132.5 -319.5v-451h-133v131q-63 -63 -146 -97t-174 -34q-187 0 -319.5 132.5t-132.5 318.5q0 187 132.5 319.5t319.5 132.5zM977 356v95q0 132 -94 224.5t-226 92.5t-225.5 -92.5t-93.5 -224.5q0 -131 93.5 -224.5t225.5 -93.5
q87 0 163.5 45.5t117.5 122.5l33 59zM686 1208l16 -12q27 -18 60 -12q18 5 31 15.5t34 41.5l109 -74q-65 -91 -150 -110q-83 -16 -157 33l-17 12q-26 18 -59 12q-18 -3 -31.5 -14.5t-34.5 -42.5l-108 73q66 96 149 111q84 16 158 -33z" />
    <glyph glyph-name="adieresis" unicode="&#xe4;" horiz-adv-x="1110" 
d="M657 903q188 0 320.5 -132.5t132.5 -319.5v-451h-133v131q-63 -63 -146 -97t-174 -34q-187 0 -319.5 132.5t-132.5 318.5q0 187 132.5 319.5t319.5 132.5zM977 356v95q0 132 -94 224.5t-226 92.5t-225.5 -92.5t-93.5 -224.5q0 -131 93.5 -224.5t225.5 -93.5
q87 0 163.5 45.5t117.5 122.5l33 59zM514 1231q41 0 70.5 -30t29.5 -71t-29.5 -70.5t-70.5 -29.5t-70.5 29.5t-29.5 70.5t29.5 71t70.5 30zM801 1231q41 0 70.5 -30t29.5 -71t-29.5 -70.5t-70.5 -29.5t-71 29.5t-30 70.5t30 71t71 30z" />
    <glyph glyph-name="aring" unicode="&#xe5;" horiz-adv-x="1110" 
d="M657 903q188 0 320.5 -132.5t132.5 -319.5v-451h-133v131q-63 -63 -146 -97t-174 -34q-187 0 -319.5 132.5t-132.5 318.5q0 187 132.5 319.5t319.5 132.5zM977 356v95q0 132 -94 224.5t-226 92.5t-225.5 -92.5t-93.5 -224.5q0 -131 93.5 -224.5t225.5 -93.5
q87 0 163.5 45.5t117.5 122.5l33 59zM657 1376q82 0 141.5 -59t59.5 -141q0 -80 -60 -140.5t-141 -60.5t-140.5 60.5t-59.5 140.5q0 82 59 141t141 59zM657 1069q46 0 76.5 30.5t30.5 76.5t-30.5 76t-76.5 30t-76 -30t-30 -76t30 -76.5t76 -30.5z" />
    <glyph glyph-name="ae" unicode="&#xe6;" horiz-adv-x="1871" 
d="M657 903q188 0 320.5 -132.5t132.5 -319.5v-451h-133v131q-63 -63 -146 -97t-174 -34q-187 0 -319.5 132.5t-132.5 318.5q0 187 132.5 319.5t319.5 132.5zM977 356v95q0 132 -94 224.5t-226 92.5t-225.5 -92.5t-93.5 -224.5q0 -131 93.5 -224.5t225.5 -93.5
q87 0 163.5 45.5t117.5 122.5l33 59zM1880 451v-66h-764q24 -109 110.5 -180.5t200.5 -71.5q87 0 163.5 45.5t117.5 122.5l117 -63q-58 -110 -165.5 -174t-232.5 -64q-187 0 -319.5 132.5t-132.5 318.5q0 187 132.5 319.5t319.5 132.5q188 0 320.5 -132.5t132.5 -319.5z
M1116 518h623q-23 108 -111 179t-201 71q-114 0 -200.5 -71t-110.5 -179z" />
    <glyph glyph-name="ccedilla" unicode="&#xe7;" horiz-adv-x="1087" 
d="M971 360l116 -63l-30 -59q-60 -110 -167.5 -174t-232.5 -64q-187 0 -319.5 132.5t-132.5 318.5q0 187 132.5 319.5t319.5 132.5q125 0 232.5 -64t167.5 -173l30 -60l-116 -63l-33 59q-41 76 -117 121t-164 45q-132 0 -225.5 -92.5t-93.5 -224.5q0 -131 93.5 -224.5
t225.5 -93.5q87 0 163.5 45.5t117.5 122.5zM637 -334q-69 0 -119 62q-8 5 -8 8l82 59q17 -26 45 -26q24 0 35 14q12 15 12 27q0 14 -10 24q-9 12 -31 12q-7 0 -98 -32l37 186h102l-12 -59q64 -9 94 -62q18 -35 18 -69q0 -60 -47 -101q-46 -43 -100 -43z" />
    <glyph glyph-name="egrave" unicode="&#xe8;" horiz-adv-x="1110" 
d="M1110 451v-66h-764q24 -109 110.5 -180.5t200.5 -71.5q87 0 163.5 45.5t117.5 122.5l117 -63q-58 -110 -165.5 -174t-232.5 -64q-187 0 -319.5 132.5t-132.5 318.5q0 187 132.5 319.5t319.5 132.5q188 0 320.5 -132.5t132.5 -319.5zM346 518h623q-23 108 -111 179
t-201 71q-114 0 -200.5 -71t-110.5 -179zM565 1288l203 -260l-86 -70l-176 142l-70 90z" />
    <glyph glyph-name="eacute" unicode="&#xe9;" horiz-adv-x="1110" 
d="M1110 451v-66h-764q24 -109 110.5 -180.5t200.5 -71.5q87 0 163.5 45.5t117.5 122.5l117 -63q-58 -110 -165.5 -174t-232.5 -64q-187 0 -319.5 132.5t-132.5 318.5q0 187 132.5 319.5t319.5 132.5q188 0 320.5 -132.5t132.5 -319.5zM346 518h623q-23 108 -111 179
t-201 71q-114 0 -200.5 -71t-110.5 -179zM750 1288l129 -98l-70 -90l-176 -142l-86 70z" />
    <glyph glyph-name="ecircumflex" unicode="&#xea;" horiz-adv-x="1110" 
d="M1110 451v-66h-764q24 -109 110.5 -180.5t200.5 -71.5q87 0 163.5 45.5t117.5 122.5l117 -63q-58 -110 -165.5 -174t-232.5 -64q-187 0 -319.5 132.5t-132.5 318.5q0 187 132.5 319.5t319.5 132.5q188 0 320.5 -132.5t132.5 -319.5zM346 518h623q-23 108 -111 179
t-201 71q-114 0 -200.5 -71t-110.5 -179zM614 1321h88q1 -1 103 -121l102 -123l-104 -88l-49 58q-83 98 -97 112l-143 -170l-106 88z" />
    <glyph glyph-name="edieresis" unicode="&#xeb;" horiz-adv-x="1110" 
d="M1110 451v-66h-764q24 -109 110.5 -180.5t200.5 -71.5q87 0 163.5 45.5t117.5 122.5l117 -63q-58 -110 -165.5 -174t-232.5 -64q-187 0 -319.5 132.5t-132.5 318.5q0 187 132.5 319.5t319.5 132.5q188 0 320.5 -132.5t132.5 -319.5zM346 518h623q-23 108 -111 179
t-201 71q-114 0 -200.5 -71t-110.5 -179zM514 1231q41 0 70.5 -30t29.5 -71t-29.5 -70.5t-70.5 -29.5t-70.5 29.5t-29.5 70.5t29.5 71t70.5 30zM801 1231q41 0 70.5 -30t29.5 -71t-29.5 -70.5t-70.5 -29.5t-71 29.5t-30 70.5t30 71t71 30z" />
    <glyph glyph-name="igrave" unicode="&#xec;" horiz-adv-x="405" 
d="M252 0h-135v903h135v-903zM92 1288l203 -260l-86 -70l-176 142l-70 90z" />
    <glyph glyph-name="iacute" unicode="&#xed;" horiz-adv-x="405" 
d="M362 0h-135v903h135v-903zM387 1288l129 -98l-70 -90l-176 -142l-86 70z" />
    <glyph glyph-name="ntilde" unicode="&#xf1;" horiz-adv-x="1110" 
d="M657 903q188 0 320.5 -132.5t132.5 -319.5v-451h-133v451q0 132 -94 224.5t-226 92.5t-225.5 -92.5t-93.5 -224.5v-451h-133v451q0 187 132.5 319.5t319.5 132.5zM686 1208l16 -12q27 -18 60 -12q18 5 31 15.5t34 41.5l109 -74q-65 -91 -150 -110q-83 -16 -157 33l-17 12
q-26 18 -59 12q-18 -3 -31.5 -14.5t-34.5 -42.5l-108 73q66 96 149 111q84 16 158 -33z" />
    <glyph glyph-name="ograve" unicode="&#xf2;" horiz-adv-x="1110" 
d="M657 903q188 0 320.5 -132.5t132.5 -319.5q0 -186 -133 -318.5t-320 -132.5t-319.5 132.5t-132.5 318.5q0 187 132.5 319.5t319.5 132.5zM657 133q132 0 226 93.5t94 224.5q0 132 -94 224.5t-226 92.5t-225.5 -92.5t-93.5 -224.5q0 -131 93.5 -224.5t225.5 -93.5z
M565 1288l203 -260l-86 -70l-176 142l-70 90z" />
    <glyph glyph-name="oacute" unicode="&#xf3;" horiz-adv-x="1110" 
d="M657 903q188 0 320.5 -132.5t132.5 -319.5q0 -186 -133 -318.5t-320 -132.5t-319.5 132.5t-132.5 318.5q0 187 132.5 319.5t319.5 132.5zM657 133q132 0 226 93.5t94 224.5q0 132 -94 224.5t-226 92.5t-225.5 -92.5t-93.5 -224.5q0 -131 93.5 -224.5t225.5 -93.5z
M750 1288l129 -98l-70 -90l-176 -142l-86 70z" />
    <glyph glyph-name="ocircumflex" unicode="&#xf4;" horiz-adv-x="1110" 
d="M657 903q188 0 320.5 -132.5t132.5 -319.5q0 -186 -133 -318.5t-320 -132.5t-319.5 132.5t-132.5 318.5q0 187 132.5 319.5t319.5 132.5zM657 133q132 0 226 93.5t94 224.5q0 132 -94 224.5t-226 92.5t-225.5 -92.5t-93.5 -224.5q0 -131 93.5 -224.5t225.5 -93.5z
M614 1321h88q1 -1 103 -121l102 -123l-104 -88l-49 58q-83 98 -97 112l-143 -170l-106 88z" />
    <glyph glyph-name="otilde" unicode="&#xf5;" horiz-adv-x="1110" 
d="M657 903q188 0 320.5 -132.5t132.5 -319.5q0 -186 -133 -318.5t-320 -132.5t-319.5 132.5t-132.5 318.5q0 187 132.5 319.5t319.5 132.5zM657 133q132 0 226 93.5t94 224.5q0 132 -94 224.5t-226 92.5t-225.5 -92.5t-93.5 -224.5q0 -131 93.5 -224.5t225.5 -93.5z
M686 1208l16 -12q27 -18 60 -12q18 5 31 15.5t34 41.5l109 -74q-65 -91 -150 -110q-83 -16 -157 33l-17 12q-26 18 -59 12q-18 -3 -31.5 -14.5t-34.5 -42.5l-108 73q66 96 149 111q84 16 158 -33z" />
    <glyph glyph-name="odieresis" unicode="&#xf6;" horiz-adv-x="1110" 
d="M657 903q188 0 320.5 -132.5t132.5 -319.5q0 -186 -133 -318.5t-320 -132.5t-319.5 132.5t-132.5 318.5q0 187 132.5 319.5t319.5 132.5zM657 133q132 0 226 93.5t94 224.5q0 132 -94 224.5t-226 92.5t-225.5 -92.5t-93.5 -224.5q0 -131 93.5 -224.5t225.5 -93.5z
M514 1231q41 0 70.5 -30t29.5 -71t-29.5 -70.5t-70.5 -29.5t-70.5 29.5t-29.5 70.5t29.5 71t70.5 30zM801 1231q41 0 70.5 -30t29.5 -71t-29.5 -70.5t-70.5 -29.5t-71 29.5t-30 70.5t30 71t71 30z" />
    <glyph glyph-name="divide" unicode="&#xf7;" horiz-adv-x="890" 
d="M895 598v-135h-756v135h756zM512 285q41 0 70.5 -30t29.5 -71t-29.5 -70.5t-70.5 -29.5t-70.5 29.5t-29.5 70.5t29.5 71t70.5 30zM512 987q41 0 70.5 -29.5t29.5 -70.5t-29.5 -71t-70.5 -30t-70.5 30t-29.5 71t29.5 70.5t70.5 29.5z" />
    <glyph glyph-name="oslash" unicode="&#xf8;" horiz-adv-x="1110" 
d="M657 903q188 0 320.5 -132.5t132.5 -319.5q0 -186 -133 -318.5t-320 -132.5t-319.5 132.5t-132.5 318.5q0 187 132.5 319.5t319.5 132.5zM657 133q132 0 226 93.5t94 224.5q0 132 -94 224.5t-226 92.5t-225.5 -92.5t-93.5 -224.5q0 -131 93.5 -224.5t225.5 -93.5z
M1016 1075l-592 -1300l-123 55l592 1300z" />
    <glyph glyph-name="ugrave" unicode="&#xf9;" horiz-adv-x="1110" 
d="M977 903h133v-452q0 -186 -133 -318.5t-320 -132.5t-319.5 132.5t-132.5 318.5v452h133v-452q0 -131 93.5 -224.5t225.5 -93.5t226 93.5t94 224.5v452zM565 1288l203 -260l-86 -70l-176 142l-70 90z" />
    <glyph glyph-name="uacute" unicode="&#xfa;" horiz-adv-x="1110" 
d="M977 903h133v-452q0 -186 -133 -318.5t-320 -132.5t-319.5 132.5t-132.5 318.5v452h133v-452q0 -131 93.5 -224.5t225.5 -93.5t226 93.5t94 224.5v452zM750 1288l129 -98l-70 -90l-176 -142l-86 70z" />
    <glyph glyph-name="ucircumflex" unicode="&#xfb;" horiz-adv-x="1110" 
d="M977 903h133v-452q0 -186 -133 -318.5t-320 -132.5t-319.5 132.5t-132.5 318.5v452h133v-452q0 -131 93.5 -224.5t225.5 -93.5t226 93.5t94 224.5v452zM614 1321h88q1 -1 103 -121l102 -123l-104 -88l-49 58q-83 98 -97 112l-143 -170l-106 88z" />
    <glyph glyph-name="udieresis" unicode="&#xfc;" horiz-adv-x="1110" 
d="M977 903h133v-452q0 -186 -133 -318.5t-320 -132.5t-319.5 132.5t-132.5 318.5v452h133v-452q0 -131 93.5 -224.5t225.5 -93.5t226 93.5t94 224.5v452zM514 1231q41 0 70.5 -30t29.5 -71t-29.5 -70.5t-70.5 -29.5t-70.5 29.5t-29.5 70.5t29.5 71t70.5 30zM801 1231
q41 0 70.5 -30t29.5 -71t-29.5 -70.5t-70.5 -29.5t-71 29.5t-30 70.5t30 71t71 30z" />
    <glyph glyph-name="yacute" unicode="&#xfd;" horiz-adv-x="1110" 
d="M975 903h135v-983q0 -186 -133 -318t-320 -132q-126 0 -232.5 63.5t-166.5 173.5l-31 60l117 63l33 -59q41 -77 117 -122.5t163 -45.5q132 0 225 93t93 224v211q-61 -63 -144 -97t-174 -34q-187 0 -319.5 132.5t-132.5 318.5v452h133v-452q0 -131 93.5 -224.5
t225.5 -93.5q87 0 163.5 45.5t117.5 122.5l31 59l6 -4v547zM750 1288l129 -98l-70 -90l-176 -142l-86 70z" />
    <glyph glyph-name="thorn" unicode="&#xfe;" horiz-adv-x="1110" 
d="M657 903q191 0 322 -131t131 -321q0 -187 -131 -318q-133 -133 -322 -133q-182 0 -319 131v-661h-133v981q0 188 133 321q131 131 319 131zM657 133q135 0 226 94q92 92 92 224q0 133 -92 225t-226 92q-130 0 -225 -92q-94 -91 -94 -225v-95l6 4l33 -59
q107 -168 280 -168zM205 258v1176h133v-1211z" />
    <glyph glyph-name="ydieresis" unicode="&#xff;" horiz-adv-x="1110" 
d="M975 903h135v-983q0 -186 -133 -318t-320 -132q-126 0 -232.5 63.5t-166.5 173.5l-31 60l117 63l33 -59q41 -77 117 -122.5t163 -45.5q132 0 225 93t93 224v211q-61 -63 -144 -97t-174 -34q-187 0 -319.5 132.5t-132.5 318.5v452h133v-452q0 -131 93.5 -224.5
t225.5 -93.5q87 0 163.5 45.5t117.5 122.5l31 59l6 -4v547zM514 1231q41 0 70.5 -30t29.5 -71t-29.5 -70.5t-70.5 -29.5t-70.5 29.5t-29.5 70.5t29.5 71t70.5 30zM801 1231q41 0 70.5 -30t29.5 -71t-29.5 -70.5t-70.5 -29.5t-71 29.5t-30 70.5t30 71t71 30z" />
    <glyph glyph-name="Amacron" unicode="&#x100;" 
d="M338 426v-426h-133v922q0 139 69 257t187.5 186.5t257.5 68.5t257.5 -68.5t187.5 -186.5t69 -257v-922h-133v426h-762zM338 922v-361h762v361q0 156 -112 267t-269 111t-269 -111t-112 -267zM463 1595v123h512v-123h-512z" />
    <glyph glyph-name="amacron" unicode="&#x101;" horiz-adv-x="1110" 
d="M657 903q188 0 320.5 -132.5t132.5 -319.5v-451h-133v131q-63 -63 -146 -97t-174 -34q-187 0 -319.5 132.5t-132.5 318.5q0 187 132.5 319.5t319.5 132.5zM977 356v95q0 132 -94 224.5t-226 92.5t-225.5 -92.5t-93.5 -224.5q0 -131 93.5 -224.5t225.5 -93.5
q87 0 163.5 45.5t117.5 122.5l33 59zM401 1065v123h512v-123h-512z" />
    <glyph glyph-name="Abreve" unicode="&#x102;" 
d="M338 426v-426h-133v922q0 139 69 257t187.5 186.5t257.5 68.5t257.5 -68.5t187.5 -186.5t69 -257v-922h-133v426h-762zM338 922v-361h762v361q0 156 -112 267t-269 111t-269 -111t-112 -267zM586 1968v-29q0 -60 39 -96q37 -37 94 -37q58 0 98 37q37 37 37 96v29h113v-29
q0 -100 -74 -174q-73 -73 -174 -73q-99 0 -172 73q-76 73 -76 174v29h115z" />
    <glyph glyph-name="abreve" unicode="&#x103;" horiz-adv-x="1110" 
d="M657 903q188 0 320.5 -132.5t132.5 -319.5v-451h-133v131q-63 -63 -146 -97t-174 -34q-187 0 -319.5 132.5t-132.5 318.5q0 187 132.5 319.5t319.5 132.5zM977 356v95q0 132 -94 224.5t-226 92.5t-225.5 -92.5t-93.5 -224.5q0 -131 93.5 -224.5t225.5 -93.5
q87 0 163.5 45.5t117.5 122.5l33 59zM524 1438v-29q0 -60 39 -96q37 -37 94 -37q59 0 99 37q37 37 37 96v29h112v-29q0 -100 -74 -174t-174 -74q-98 0 -172 74q-75 72 -75 174v29h114z" />
    <glyph glyph-name="Aogonek" unicode="&#x104;" 
d="M338 426v-426h-133v922q0 139 69 257t187.5 186.5t257.5 68.5t257.5 -68.5t187.5 -186.5t69 -257v-922h-133v426h-762zM338 922v-361h762v361q0 156 -112 267t-269 111t-269 -111t-112 -267zM1221 -383q-217 0 -217 174q0 99 94 225l82 -4q-62 -106 -62 -168
q0 -98 148 -98h8l-6 -127z" />
    <glyph glyph-name="aogonek" unicode="&#x105;" horiz-adv-x="1110" 
d="M657 903q188 0 320.5 -132.5t132.5 -319.5v-451h-133v131q-63 -63 -146 -97t-174 -34q-187 0 -319.5 132.5t-132.5 318.5q0 187 132.5 319.5t319.5 132.5zM977 356v95q0 132 -94 224.5t-226 92.5t-225.5 -92.5t-93.5 -224.5q0 -131 93.5 -224.5t225.5 -93.5
q87 0 163.5 45.5t117.5 122.5l33 59zM1116 -383q-215 0 -215 174q0 101 92 225l82 -4q-61 -104 -61 -168q0 -98 147 -98h8l-6 -127z" />
    <glyph glyph-name="Cacute" unicode="&#x106;" horiz-adv-x="1478" 
d="M924 0q-141 0 -273.5 53.5t-234.5 157.5q-102 102 -156.5 232t-54.5 274t54.5 274.5t156.5 233.5q138 137 323 186t370 -0.5t323 -187.5l47 -47l-95 -95l-47 47q-112 112 -262.5 151.5t-301.5 0t-263 -151.5q-172 -172 -172 -411q0 -240 172 -412q112 -112 262.5 -151.5
t301.5 0t263 151.5l47 47l95 -94l-47 -47q-102 -104 -234.5 -157.5t-273.5 -53.5zM934 1819l129 -99l-70 -90l-176 -141l-86 70z" />
    <glyph glyph-name="cacute" unicode="&#x107;" horiz-adv-x="1087" 
d="M971 360l116 -63l-30 -59q-60 -110 -167.5 -174t-232.5 -64q-187 0 -319.5 132.5t-132.5 318.5q0 187 132.5 319.5t319.5 132.5q125 0 232.5 -64t167.5 -173l30 -60l-116 -63l-33 59q-41 76 -117 121t-164 45q-132 0 -225.5 -92.5t-93.5 -224.5q0 -131 93.5 -224.5
t225.5 -93.5q87 0 163.5 45.5t117.5 122.5zM739 1288l129 -98l-71 -90l-174 -142l-88 70z" />
    <glyph glyph-name="Ccircumflex" unicode="&#x108;" horiz-adv-x="1478" 
d="M924 0q-141 0 -273.5 53.5t-234.5 157.5q-102 102 -156.5 232t-54.5 274t54.5 274.5t156.5 233.5q138 137 323 186t370 -0.5t323 -187.5l47 -47l-95 -95l-47 47q-112 112 -262.5 151.5t-301.5 0t-263 -151.5q-172 -172 -172 -411q0 -240 172 -412q112 -112 262.5 -151.5
t301.5 0t263 151.5l47 47l95 -94l-47 -47q-102 -104 -234.5 -157.5t-273.5 -53.5zM799 1851h88q1 -1 10.5 -12t37.5 -44t54 -64l103 -123l-105 -88q-1 0 -49 57q-94 111 -96 113l-144 -170l-106 88z" />
    <glyph glyph-name="ccircumflex" unicode="&#x109;" horiz-adv-x="1087" 
d="M971 360l116 -63l-30 -59q-60 -110 -167.5 -174t-232.5 -64q-187 0 -319.5 132.5t-132.5 318.5q0 187 132.5 319.5t319.5 132.5q125 0 232.5 -64t167.5 -173l30 -60l-116 -63l-33 59q-41 76 -117 121t-164 45q-132 0 -225.5 -92.5t-93.5 -224.5q0 -131 93.5 -224.5
t225.5 -93.5q87 0 163.5 45.5t117.5 122.5zM602 1321h88q18 -18 103 -121l102 -123l-104 -88q-1 0 -5.5 6t-17.5 21.5t-25 30.5q-28 32 -51.5 59.5t-33.5 39.5l-11 13l-145 -170l-105 88z" />
    <glyph glyph-name="Cdotaccent" unicode="&#x10a;" horiz-adv-x="1478" 
d="M924 0q-141 0 -273.5 53.5t-234.5 157.5q-102 102 -156.5 232t-54.5 274t54.5 274.5t156.5 233.5q138 137 323 186t370 -0.5t323 -187.5l47 -47l-95 -95l-47 47q-112 112 -262.5 151.5t-301.5 0t-263 -151.5q-172 -172 -172 -411q0 -240 172 -412q112 -112 262.5 -151.5
t301.5 0t263 151.5l47 47l95 -94l-47 -47q-102 -104 -234.5 -157.5t-273.5 -53.5zM842 1798q35 0 60.5 -24.5t25.5 -59.5t-25.5 -60.5t-60.5 -25.5t-60.5 25.5t-25.5 60.5t25.5 59.5t60.5 24.5z" />
    <glyph glyph-name="cdotaccent" unicode="&#x10b;" horiz-adv-x="1087" 
d="M971 360l116 -63l-30 -59q-60 -110 -167.5 -174t-232.5 -64q-187 0 -319.5 132.5t-132.5 318.5q0 187 132.5 319.5t319.5 132.5q125 0 232.5 -64t167.5 -173l30 -60l-116 -63l-33 59q-41 76 -117 121t-164 45q-132 0 -225.5 -92.5t-93.5 -224.5q0 -131 93.5 -224.5
t225.5 -93.5q87 0 163.5 45.5t117.5 122.5zM647 1268q34 0 59 -24.5t25 -59.5t-25 -60.5t-59 -25.5q-35 0 -60.5 25.5t-25.5 60.5t25.5 59.5t60.5 24.5z" />
    <glyph glyph-name="Ccaron" unicode="&#x10c;" horiz-adv-x="1478" 
d="M924 0q-141 0 -273.5 53.5t-234.5 157.5q-102 102 -156.5 232t-54.5 274t54.5 274.5t156.5 233.5q138 137 323 186t370 -0.5t323 -187.5l47 -47l-95 -95l-47 47q-112 112 -262.5 151.5t-301.5 0t-263 -151.5q-172 -172 -172 -411q0 -240 172 -412q112 -112 262.5 -151.5
t301.5 0t263 151.5l47 47l95 -94l-47 -47q-102 -104 -234.5 -157.5t-273.5 -53.5zM592 1761l106 90l144 -172q1 2 11 13.5t35 41t50 60.5q41 49 49 57l105 -90l-103 -121l-102 -120h-88z" />
    <glyph glyph-name="ccaron" unicode="&#x10d;" horiz-adv-x="1087" 
d="M971 360l116 -63l-30 -59q-60 -110 -167.5 -174t-232.5 -64q-187 0 -319.5 132.5t-132.5 318.5q0 187 132.5 319.5t319.5 132.5q125 0 232.5 -64t167.5 -173l30 -60l-116 -63l-33 59q-41 76 -117 121t-164 45q-132 0 -225.5 -92.5t-93.5 -224.5q0 -131 93.5 -224.5
t225.5 -93.5q87 0 163.5 45.5t117.5 122.5zM397 1231l105 90l145 -172q3 5 96 115q47 55 48 57l104 -90l-102 -121q-100 -121 -103 -121h-88z" />
    <glyph glyph-name="Dcaron" unicode="&#x10e;" horiz-adv-x="1349" 
d="M1350 717q0 -145 -57 -278t-153.5 -229t-229.5 -153t-279 -57h-426v1434h426q146 0 279.5 -57t229.5 -153t153 -228.5t57 -278.5zM338 1300v-1167h293q158 0 292.5 78.5t212.5 213t78 292.5t-78 292.5t-212.5 212.5t-292.5 78h-293zM528 1761l105 90l145 -172q3 5 96 115
q47 56 48 57l104 -90l-102 -121q-99 -120 -103 -120h-88z" />
    <glyph glyph-name="dcaron" unicode="&#x10f;" horiz-adv-x="1517" 
d="M977 1434h133v-983q0 -186 -133 -318.5t-320 -132.5t-319.5 132.5t-132.5 318.5q0 187 132.5 319.5t319.5 132.5q90 0 173 -34.5t147 -96.5v662zM977 451v96l-6 -4l-33 59q-41 76 -117 121t-164 45q-132 0 -225.5 -92.5t-93.5 -224.5q0 -131 93.5 -224.5t225.5 -93.5
t226 93.5t94 224.5zM1372 1239q-14 5 -26 21q-31 28 -31 69t31 72q29 29 69 29t72 -29q29 -32 29 -72q0 -23 -11 -45l-80 -209l-102 39z" />
    <glyph glyph-name="Dcroat" unicode="&#x110;" horiz-adv-x="1349" 
d="M1006 717q0 -145 -57 -278t-153.5 -229t-229.5 -153t-279 -57h-426v1434h426q146 0 279.5 -57t229.5 -153t153 -228.5t57 -278.5zM-6 1300v-1167h293q158 0 292.5 78.5t212.5 213t78 292.5t-78 292.5t-212.5 212.5t-292.5 78h-293zM594 784v-135h-1077v135h1077z" />
    <glyph glyph-name="dcroat" unicode="&#x111;" horiz-adv-x="1110" 
d="M967 1434h133v-983q0 -186 -133 -318.5t-320 -132.5t-319.5 132.5t-132.5 318.5q0 187 132.5 319.5t319.5 132.5q90 0 173 -34.5t147 -96.5v662zM967 451v96l-6 -4l-33 59q-41 76 -117 121t-164 45q-132 0 -225.5 -92.5t-93.5 -224.5q0 -131 93.5 -224.5t225.5 -93.5
t226 93.5t94 224.5zM1262 1286v-135h-1078v135h1078z" />
    <glyph glyph-name="Emacron" unicode="&#x112;" 
d="M1233 133v-133h-1028v1434h1028v-134h-895v-516h739v-135h-739v-516h895zM463 1595v123h512v-123h-512z" />
    <glyph glyph-name="emacron" unicode="&#x113;" horiz-adv-x="1110" 
d="M1110 451v-66h-764q24 -109 110.5 -180.5t200.5 -71.5q87 0 163.5 45.5t117.5 122.5l117 -63q-58 -110 -165.5 -174t-232.5 -64q-187 0 -319.5 132.5t-132.5 318.5q0 187 132.5 319.5t319.5 132.5q188 0 320.5 -132.5t132.5 -319.5zM346 518h623q-23 108 -111 179
t-201 71q-114 0 -200.5 -71t-110.5 -179zM401 1065v123h512v-123h-512z" />
    <glyph glyph-name="ebreve" unicode="&#x115;" horiz-adv-x="1110" 
d="M1110 451v-66h-764q24 -109 110.5 -180.5t200.5 -71.5q87 0 163.5 45.5t117.5 122.5l117 -63q-58 -110 -165.5 -174t-232.5 -64q-187 0 -319.5 132.5t-132.5 318.5q0 187 132.5 319.5t319.5 132.5q188 0 320.5 -132.5t132.5 -319.5zM346 518h623q-23 108 -111 179
t-201 71q-114 0 -200.5 -71t-110.5 -179zM524 1438v-29q0 -60 39 -96q37 -37 94 -37q59 0 99 37q37 37 37 96v29h112v-29q0 -100 -74 -174t-174 -74q-98 0 -172 74q-75 72 -75 174v29h114z" />
    <glyph glyph-name="Edotaccent" unicode="&#x116;" 
d="M1233 133v-133h-1028v1434h1028v-134h-895v-516h739v-135h-739v-516h895zM719 1798q35 0 60.5 -24.5t25.5 -59.5t-25.5 -60.5t-60.5 -25.5t-60.5 25.5t-25.5 60.5t25.5 59.5t60.5 24.5z" />
    <glyph glyph-name="edotaccent" unicode="&#x117;" horiz-adv-x="1110" 
d="M1110 451v-66h-764q24 -109 110.5 -180.5t200.5 -71.5q87 0 163.5 45.5t117.5 122.5l117 -63q-58 -110 -165.5 -174t-232.5 -64q-187 0 -319.5 132.5t-132.5 318.5q0 187 132.5 319.5t319.5 132.5q188 0 320.5 -132.5t132.5 -319.5zM346 518h623q-23 108 -111 179
t-201 71q-114 0 -200.5 -71t-110.5 -179zM657 1268q35 0 60.5 -24.5t25.5 -59.5t-25.5 -60.5t-60.5 -25.5t-60.5 25.5t-25.5 60.5t25.5 59.5t60.5 24.5z" />
    <glyph glyph-name="Eogonek" unicode="&#x118;" 
d="M1233 133v-133h-1028v1434h1028v-134h-895v-516h739v-135h-739v-516h895zM1180 -383q-215 0 -215 174q0 101 92 225l82 -4q-62 -106 -62 -168q0 -98 148 -98h8l-6 -127z" />
    <glyph glyph-name="eogonek" unicode="&#x119;" horiz-adv-x="1110" 
d="M1110 451v-66h-764q24 -109 110.5 -180.5t200.5 -71.5q87 0 163.5 45.5t117.5 122.5l117 -63q-58 -110 -165.5 -174t-232.5 -64q-187 0 -319.5 132.5t-132.5 318.5q0 187 132.5 319.5t319.5 132.5q188 0 320.5 -132.5t132.5 -319.5zM346 518h623q-23 108 -111 179
t-201 71q-114 0 -200.5 -71t-110.5 -179zM872 -383q-215 0 -215 174q0 100 93 225l81 -4q-59 -101 -59 -168q0 -98 148 -98h6l-6 -127z" />
    <glyph glyph-name="Ecaron" unicode="&#x11a;" 
d="M1233 133v-133h-1028v1434h1028v-134h-895v-516h739v-135h-739v-516h895zM469 1761l106 90l144 -172q1 2 11 13.5t35 41t50 60.5q41 49 49 57l105 -90l-103 -121l-102 -120h-88z" />
    <glyph glyph-name="ecaron" unicode="&#x11b;" horiz-adv-x="1110" 
d="M1110 451v-66h-764q24 -109 110.5 -180.5t200.5 -71.5q87 0 163.5 45.5t117.5 122.5l117 -63q-58 -110 -165.5 -174t-232.5 -64q-187 0 -319.5 132.5t-132.5 318.5q0 187 132.5 319.5t319.5 132.5q188 0 320.5 -132.5t132.5 -319.5zM346 518h623q-23 108 -111 179
t-201 71q-114 0 -200.5 -71t-110.5 -179zM408 1231l106 90l143 -172q1 2 11.5 14t35 40.5t50.5 60.5q41 49 49 57l104 -90l-102 -121l-103 -121h-88z" />
    <glyph glyph-name="Gcircumflex" unicode="&#x11c;" horiz-adv-x="1642" 
d="M856 784h786v-67q0 -143 -54.5 -274t-155.5 -232q-102 -104 -234.5 -157.5t-273.5 -53.5t-273.5 53.5t-234.5 157.5q-102 102 -156.5 232t-54.5 274t54.5 274.5t156.5 233.5q138 137 323 186t370 -0.5t323 -187.5l47 -47l-95 -95l-47 47q-112 112 -262.5 151.5t-301.5 0
t-263 -151.5q-172 -172 -172 -411q0 -240 172 -412q112 -112 262.5 -151.5t301.5 0t263 151.5q143 143 168 344h-649v135zM881 1851h88q1 -1 10.5 -12t37.5 -44t54 -64l103 -123l-105 -88q-1 0 -49 57q-94 111 -96 113l-144 -170l-106 88z" />
    <glyph glyph-name="gcircumflex" unicode="&#x11d;" horiz-adv-x="1110" 
d="M657 903q188 0 320.5 -132.5t132.5 -319.5v-531q0 -186 -133 -318t-320 -132q-126 0 -232.5 63.5t-166.5 173.5l-31 60l117 63l33 -59q41 -77 117 -122.5t163 -45.5q132 0 226 93t94 224v211q-64 -62 -147 -96.5t-173 -34.5q-187 0 -319.5 132.5t-132.5 318.5
q0 187 132.5 319.5t319.5 132.5zM977 356v95q0 132 -94 224.5t-226 92.5t-225.5 -92.5t-93.5 -224.5q0 -131 93.5 -224.5t225.5 -93.5q87 0 163.5 45.5t117.5 122.5l31 59zM614 1321h88q1 -1 103 -121l102 -123l-104 -88l-49 58q-83 98 -97 112l-143 -170l-106 88z" />
    <glyph glyph-name="Gbreve" unicode="&#x11e;" horiz-adv-x="1642" 
d="M856 784h786v-67q0 -143 -54.5 -274t-155.5 -232q-102 -104 -234.5 -157.5t-273.5 -53.5t-273.5 53.5t-234.5 157.5q-102 102 -156.5 232t-54.5 274t54.5 274.5t156.5 233.5q138 137 323 186t370 -0.5t323 -187.5l47 -47l-95 -95l-47 47q-112 112 -262.5 151.5t-301.5 0
t-263 -151.5q-172 -172 -172 -411q0 -240 172 -412q112 -112 262.5 -151.5t301.5 0t263 151.5q143 143 168 344h-649v135zM791 1968v-29q0 -61 38 -96q37 -37 95 -37t98 37q37 37 37 96v29h112v-29q0 -101 -73 -174t-174 -73q-99 0 -172 73q-76 73 -76 174v29h115z" />
    <glyph glyph-name="gbreve" unicode="&#x11f;" horiz-adv-x="1110" 
d="M657 903q188 0 320.5 -132.5t132.5 -319.5v-531q0 -186 -133 -318t-320 -132q-126 0 -232.5 63.5t-166.5 173.5l-31 60l117 63l33 -59q41 -77 117 -122.5t163 -45.5q132 0 226 93t94 224v211q-64 -62 -147 -96.5t-173 -34.5q-187 0 -319.5 132.5t-132.5 318.5
q0 187 132.5 319.5t319.5 132.5zM977 356v95q0 132 -94 224.5t-226 92.5t-225.5 -92.5t-93.5 -224.5q0 -131 93.5 -224.5t225.5 -93.5q87 0 163.5 45.5t117.5 122.5l31 59zM524 1438v-29q0 -60 39 -96q37 -37 94 -37q59 0 99 37q37 37 37 96v29h112v-29q0 -100 -74 -174
t-174 -74q-98 0 -172 74q-75 72 -75 174v29h114z" />
    <glyph glyph-name="Gdotaccent" unicode="&#x120;" horiz-adv-x="1642" 
d="M856 784h786v-67q0 -143 -54.5 -274t-155.5 -232q-102 -104 -234.5 -157.5t-273.5 -53.5t-273.5 53.5t-234.5 157.5q-102 102 -156.5 232t-54.5 274t54.5 274.5t156.5 233.5q138 137 323 186t370 -0.5t323 -187.5l47 -47l-95 -95l-47 47q-112 112 -262.5 151.5t-301.5 0
t-263 -151.5q-172 -172 -172 -411q0 -240 172 -412q112 -112 262.5 -151.5t301.5 0t263 151.5q143 143 168 344h-649v135zM924 1798q35 0 60.5 -24.5t25.5 -59.5t-25.5 -60.5t-60.5 -25.5t-60.5 25.5t-25.5 60.5t25.5 59.5t60.5 24.5z" />
    <glyph glyph-name="gdotaccent" unicode="&#x121;" horiz-adv-x="1110" 
d="M657 903q188 0 320.5 -132.5t132.5 -319.5v-531q0 -186 -133 -318t-320 -132q-126 0 -232.5 63.5t-166.5 173.5l-31 60l117 63l33 -59q41 -77 117 -122.5t163 -45.5q132 0 226 93t94 224v211q-64 -62 -147 -96.5t-173 -34.5q-187 0 -319.5 132.5t-132.5 318.5
q0 187 132.5 319.5t319.5 132.5zM977 356v95q0 132 -94 224.5t-226 92.5t-225.5 -92.5t-93.5 -224.5q0 -131 93.5 -224.5t225.5 -93.5q87 0 163.5 45.5t117.5 122.5l31 59zM657 1268q35 0 60.5 -24.5t25.5 -59.5t-25.5 -60.5t-60.5 -25.5t-60.5 25.5t-25.5 60.5t25.5 59.5
t60.5 24.5z" />
    <glyph glyph-name="Gcedilla" unicode="&#x122;" horiz-adv-x="1642" 
d="M856 784h786v-67q0 -143 -54.5 -274t-155.5 -232q-102 -104 -234.5 -157.5t-273.5 -53.5t-273.5 53.5t-234.5 157.5q-102 102 -156.5 232t-54.5 274t54.5 274.5t156.5 233.5q138 137 323 186t370 -0.5t323 -187.5l47 -47l-95 -95l-47 47q-112 112 -262.5 151.5t-301.5 0
t-263 -151.5q-172 -172 -172 -411q0 -240 172 -412q112 -112 262.5 -151.5t301.5 0t263 151.5q143 143 168 344h-649v135zM893 -416q-6 2 -19 15q-20 17 -20 49q0 29 20 49t50 20q31 0 51 -20q18 -21 18 -49q0 -18 -6 -33l-55 -145l-72 26z" />
    <glyph glyph-name="gcedilla" unicode="&#x123;" horiz-adv-x="1110" 
d="M657 903q188 0 320.5 -132.5t132.5 -319.5v-531q0 -186 -133 -318t-320 -132q-126 0 -232.5 63.5t-166.5 173.5l-31 60l117 63l33 -59q41 -77 117 -122.5t163 -45.5q132 0 226 93t94 224v211q-64 -62 -147 -96.5t-173 -34.5q-187 0 -319.5 132.5t-132.5 318.5
q0 187 132.5 319.5t319.5 132.5zM977 356v95q0 132 -94 224.5t-226 92.5t-225.5 -92.5t-93.5 -224.5q0 -131 93.5 -224.5t225.5 -93.5q87 0 163.5 45.5t117.5 122.5l31 59zM700 1266q15 -6 27 -21q31 -28 31 -69t-31 -72q-29 -29 -70 -29q-39 0 -71 29q-29 32 -29 72
q0 25 10 45l80 209l103 -39z" />
    <glyph glyph-name="Hcircumflex" unicode="&#x124;" 
d="M338 649v-649h-133v1434h133v-650h762v650h133v-1434h-133v649h-762zM676 1851h88q1 -1 10.5 -12t37.5 -44t54 -64l103 -123l-105 -88q-1 0 -49 57q-94 111 -96 113l-144 -170l-106 88z" />
    <glyph glyph-name="hcircumflex" unicode="&#x125;" horiz-adv-x="1110" 
d="M498 903q188 0 320 -132.5t132 -319.5v-451h-133v451q0 132 -93.5 224.5t-225.5 92.5t-226 -92.5t-94 -224.5v-451h-133v1434h133v-662q134 131 320 131zM92 1841h88q1 -1 103 -121l102 -123l-104 -88q-9 9 -50 58q-26 31 -50.5 60t-34 40t-9.5 12l-145 -170l-107 90z
" />
    <glyph glyph-name="Hbar" unicode="&#x126;" 
d="M338 649v-649h-133v1434h133v-650h762v650h133v-1434h-133v649h-762zM1282 1163v-135h-1077v135h1077z" />
    <glyph glyph-name="hbar" unicode="&#x127;" horiz-adv-x="1110" 
d="M442 903q188 0 320.5 -132.5t132.5 -319.5v-451h-133v451q0 132 -94 224.5t-226 92.5t-225.5 -92.5t-93.5 -224.5v-451h-133v1434h133v-662q134 131 319 131zM852 1286v-135h-1077v135h1077z" />
    <glyph glyph-name="Itilde" unicode="&#x128;" horiz-adv-x="337" 
d="M127 0h-133v1434h133v-1434zM88 1739l16 -13q30 -18 60 -12q20 5 33 16t34 42l107 -74q-62 -92 -148 -111q-84 -15 -157 33l-17 12q-31 19 -59 13q-19 -3 -33 -14.5t-35 -43.5l-106 74q63 95 147 111q85 15 158 -33z" />
    <glyph glyph-name="Imacron" unicode="&#x12a;" horiz-adv-x="337" 
d="M147 0h-133v1434h133v-1434zM-176 1595v123h514v-123h-514z" />
    <glyph glyph-name="imacron" unicode="&#x12b;" horiz-adv-x="405" 
d="M217 0h-135v903h135v-903zM-106 1065v123h512v-123h-512z" />
    <glyph glyph-name="Iogonek" unicode="&#x12e;" horiz-adv-x="337" 
d="M248 0h-133v1434h133v-1434zM240 -383q-215 0 -215 174q0 101 92 225l82 -4q-60 -102 -60 -168q0 -98 148 -98h6l-6 -127z" />
    <glyph glyph-name="iogonek" unicode="&#x12f;" horiz-adv-x="405" 
d="M360 0h-135v903h135v-903zM293 971q-41 0 -70.5 29.5t-29.5 70.5q0 42 29 71t71 29t71 -29t29 -71q0 -41 -29.5 -70.5t-70.5 -29.5zM397 -383q-217 0 -217 174q0 103 94 225l82 -4q-61 -104 -61 -168q0 -98 147 -98h9l-7 -127z" />
    <glyph glyph-name="Idotaccent" unicode="&#x130;" horiz-adv-x="337" 
d="M319 0h-133v1434h133v-1434zM254 1798q34 0 59 -24.5t25 -59.5t-25 -60.5t-59 -25.5q-35 0 -60.5 25.5t-25.5 60.5t25.5 59.5t60.5 24.5z" />
    <glyph glyph-name="idotless" unicode="&#x131;" horiz-adv-x="405" 
d="M406 0h-136v903h136v-903z" />
    <glyph glyph-name="IJ" unicode="&#x132;" horiz-adv-x="1124" 
d="M338 0h-133v1434h133v-1434zM1124 512q0 -139 -69 -257t-187.5 -186.5t-257.5 -68.5h-67v133h67q157 0 268 111t111 268v922h135v-922z" />
    <glyph glyph-name="ij" unicode="&#x133;" horiz-adv-x="1161" 
d="M373 0h-135v903h135v-903zM305 971q-41 0 -70.5 29.5t-29.5 70.5q0 42 29 71t71 29t71.5 -29t29.5 -71q0 -41 -30 -70.5t-71 -29.5zM631 -80v983h135v-983q0 -186 -133 -318t-320 -132h-67v133h67q131 0 224.5 93.5t93.5 223.5zM696 971q-41 0 -70.5 29.5t-29.5 70.5
q0 42 29 71t71 29t71.5 -29t29.5 -71q0 -41 -30 -70.5t-71 -29.5z" />
    <glyph glyph-name="Jcircumflex" unicode="&#x134;" horiz-adv-x="786" 
d="M786 512q0 -139 -69 -257t-187.5 -186.5t-257.5 -68.5h-67v133h67q157 0 268 111t111 268v922h135v-922zM453 1851h88q1 -1 10.5 -12t37.5 -44t54 -64l102 -123l-104 -88q-1 0 -49 57q-94 111 -96 113l-144 -170l-106 88z" />
    <glyph glyph-name="Kcedilla" unicode="&#x136;" horiz-adv-x="1261" 
d="M840 649h-318l-184 -178v-471h-133v1434h133v-775l829 803l95 -96l-600 -582h178q163 0 278 -115t115 -278v-391h-133v391q0 107 -76.5 182.5t-183.5 75.5zM702 -416q-5 2 -18 15q-20 17 -20 49q0 29 20 49t49 20q31 0 51 -20q19 -22 19 -49q0 -18 -6 -33l-56 -145
l-71 26z" />
    <glyph glyph-name="kcedilla" unicode="&#x137;" horiz-adv-x="972" 
d="M657 561q122 -11 204.5 -100.5t82.5 -212.5v-248h-133v248q0 75 -53.5 128.5t-128.5 53.5h-127l-164 -137v-293h-133v1434h133v-967l547 463l88 -103zM559 -416q-4 1 -18 15q-23 20 -23 49q0 26 23 49q17 20 49 20q29 0 49 -20q20 -23 20 -49q0 -13 -8 -33l-55 -145
l-72 26z" />
    <glyph glyph-name="kra" unicode="&#x138;" horiz-adv-x="972" 
d="M657 561q122 -11 204.5 -100.5t82.5 -212.5v-248h-133v248q0 75 -53.5 128.5t-128.5 53.5h-127l-164 -137v-293h-133v1434h133v-967l547 463l88 -103z" />
    <glyph glyph-name="Lacute" unicode="&#x139;" 
d="M719 0q-139 0 -257.5 68.5t-187.5 186.5t-69 257v922h133v-922q0 -157 112 -268t269 -111h514v-133h-514zM512 1819l127 -99l-70 -90l-176 -141l-86 70z" />
    <glyph glyph-name="lacute" unicode="&#x13a;" horiz-adv-x="458" 
d="M354 133h66v-133h-66q-78 0 -133 55t-55 133v1246h133v-1246q0 -23 16 -39t39 -16zM330 1931l129 -98l-72 -92l-174 -139l-86 69z" />
    <glyph glyph-name="Lcedilla" unicode="&#x13b;" 
d="M719 0q-139 0 -257.5 68.5t-187.5 186.5t-69 257v922h133v-922q0 -157 112 -268t269 -111h514v-133h-514zM688 -416q-4 2 -18 15q-21 18 -21 49q0 28 21 49q20 20 49 20q31 0 51 -20q18 -21 18 -49q0 -18 -6 -33l-55 -145l-72 26z" />
    <glyph glyph-name="lcedilla" unicode="&#x13c;" horiz-adv-x="458" 
d="M393 133h66v-133h-66q-78 0 -133 55t-55 133v1246h133v-1246q0 -23 16 -39t39 -16zM301 -416q-5 2 -18 15q-21 18 -21 49q0 28 21 49q20 20 49 20q31 0 51 -20q18 -21 18 -49q0 -18 -6 -33l-55 -145l-72 26z" />
    <glyph glyph-name="Lcaron" unicode="&#x13d;" 
d="M719 0q-139 0 -257.5 68.5t-187.5 186.5t-69 257v922h133v-922q0 -157 112 -268t269 -111h514v-133h-514zM1090 1239q-15 6 -27 21q-31 28 -31 69t31 72q29 29 70 29q39 0 71 -29q29 -32 29 -72q0 -25 -10 -45l-80 -209l-103 39z" />
    <glyph glyph-name="lcaron" unicode="&#x13e;" horiz-adv-x="866" 
d="M393 133h66v-133h-66q-78 0 -133 55t-55 133v1246h133v-1246q0 -23 16 -39t39 -16zM721 1239q-15 6 -27 21q-30 27 -30 69t30 72q29 29 70 29q40 0 72 -29q28 -31 28 -72q0 -25 -10 -45l-80 -209l-102 39z" />
    <glyph glyph-name="Lmiddledot" unicode="&#x13f;" 
d="M719 0q-139 0 -257.5 68.5t-187.5 186.5t-69 257v922h133v-922q0 -157 112 -268t269 -111h514v-133h-514zM1096 803q35 0 60.5 -25.5t25.5 -60.5t-25.5 -60.5t-60.5 -25.5t-59.5 25.5t-24.5 60.5t24.5 60.5t59.5 25.5z" />
    <glyph glyph-name="lmiddledot" unicode="&#x140;" horiz-adv-x="698" 
d="M393 133h66v-133h-66q-78 0 -133 55t-55 133v1246h133v-1246q0 -23 16 -39t39 -16zM715 803q35 0 60.5 -25.5t25.5 -60.5t-25.5 -60.5t-60.5 -25.5t-60.5 25.5t-25.5 60.5t25.5 60.5t60.5 25.5z" />
    <glyph glyph-name="Lslash" unicode="&#x141;" 
d="M375 0q-139 0 -257.5 68.5t-187.5 186.5t-69 257v922h133v-922q0 -157 112 -268t269 -111h514v-133h-514zM594 784v-135h-1077v135h1077z" />
    <glyph glyph-name="lslash" unicode="&#x142;" horiz-adv-x="458" 
d="M-18 133h65v-133h-65q-78 0 -133.5 55t-55.5 133v1246h133v-1246q0 -23 16.5 -39t39.5 -16zM459 784v-135h-1077v135h1077z" />
    <glyph glyph-name="Nacute" unicode="&#x143;" 
d="M1233 1434v-1434h-103l-792 1151v-1151h-133v1434h102l793 -1151v1151h133zM811 1819l129 -99l-70 -90l-176 -141l-86 70z" />
    <glyph glyph-name="nacute" unicode="&#x144;" horiz-adv-x="1110" 
d="M657 903q188 0 320.5 -132.5t132.5 -319.5v-451h-133v451q0 132 -94 224.5t-226 92.5t-225.5 -92.5t-93.5 -224.5v-451h-133v451q0 187 132.5 319.5t319.5 132.5zM750 1288l129 -98l-70 -90l-176 -142l-86 70z" />
    <glyph glyph-name="Ncedilla" unicode="&#x145;" 
d="M1233 1434v-1434h-103l-792 1151v-1151h-133v1434h102l793 -1151v1151h133zM688 -416q-4 2 -18 15q-21 18 -21 49q0 28 21 49q20 20 49 20q31 0 51 -20q18 -21 18 -49q0 -18 -6 -33l-55 -145l-72 26z" />
    <glyph glyph-name="ncedilla" unicode="&#x146;" horiz-adv-x="1110" 
d="M657 903q188 0 320.5 -132.5t132.5 -319.5v-451h-133v451q0 132 -94 224.5t-226 92.5t-225.5 -92.5t-93.5 -224.5v-451h-133v451q0 187 132.5 319.5t319.5 132.5zM627 -416q-6 2 -19 15q-20 17 -20 49q0 29 20 49t49 20q32 0 52 -20q18 -21 18 -49q0 -18 -6 -33l-55 -145
l-72 26z" />
    <glyph glyph-name="Ncaron" unicode="&#x147;" 
d="M1233 1434v-1434h-103l-792 1151v-1151h-133v1434h102l793 -1151v1151h133zM469 1761l106 90l144 -172q1 2 11 13.5t35 41t50 60.5q41 49 49 57l105 -90l-103 -121l-102 -120h-88z" />
    <glyph glyph-name="ncaron" unicode="&#x148;" horiz-adv-x="1110" 
d="M657 903q188 0 320.5 -132.5t132.5 -319.5v-451h-133v451q0 132 -94 224.5t-226 92.5t-225.5 -92.5t-93.5 -224.5v-451h-133v451q0 187 132.5 319.5t319.5 132.5zM408 1231l106 90l143 -172q1 2 11.5 14t35 40.5t50.5 60.5q41 49 49 57l104 -90l-102 -121l-103 -121h-88z
" />
    <glyph glyph-name="napostrophe" unicode="&#x149;" horiz-adv-x="1210" 
d="M262 1239q-14 5 -26 21q-31 28 -31 69t31 72q29 29 69 29t72 -29q29 -32 29 -72q0 -23 -11 -45l-80 -209l-102 39zM758 903q188 0 320 -132.5t132 -319.5v-451h-133v451q0 132 -93.5 224.5t-225.5 92.5t-226 -92.5t-94 -224.5v-451h-133v451q0 187 132.5 319.5
t320.5 132.5z" />
    <glyph glyph-name="Eng" unicode="&#x14a;" 
d="M1233 1434v-1434h-103l-792 1151v-1151h-133v1434h102l793 -1151v1151h133zM1090 10q-15 6 -27 21q-31 28 -31 69t31 72q29 29 70 29q39 0 71 -29q29 -32 29 -72q0 -25 -10 -45l-80 -209l-103 39z" />
    <glyph glyph-name="eng" unicode="&#x14b;" horiz-adv-x="1110" 
d="M657 903q188 0 320.5 -132.5t132.5 -319.5v-451h-133v451q0 132 -94 224.5t-226 92.5t-225.5 -92.5t-93.5 -224.5v-451h-133v451q0 187 132.5 319.5t319.5 132.5zM967 10q-15 6 -27 21q-31 28 -31 69t31 72q29 29 70 29q39 0 71 -29q29 -32 29 -72q0 -25 -10 -45
l-80 -209l-102 39z" />
    <glyph glyph-name="Omacron" unicode="&#x14c;" horiz-adv-x="1642" 
d="M924 1434q146 0 279 -57t229 -153t153 -228.5t57 -278.5t-57 -278.5t-153 -228.5t-229 -153t-279 -57t-279.5 57t-229.5 153t-153 228.5t-57 278.5t57 278.5t153 228.5t229.5 153t279.5 57zM924 133q159 0 294 78.5t213 213t78 292.5t-78 292.5t-213 212.5t-294 78
q-158 0 -293 -78t-214 -212.5t-79 -292.5t79 -293t214 -213t293 -78zM668 1595v123h512v-123h-512z" />
    <glyph glyph-name="omacron" unicode="&#x14d;" horiz-adv-x="1110" 
d="M657 903q188 0 320.5 -132.5t132.5 -319.5q0 -186 -133 -318.5t-320 -132.5t-319.5 132.5t-132.5 318.5q0 187 132.5 319.5t319.5 132.5zM657 133q132 0 226 93.5t94 224.5q0 132 -94 224.5t-226 92.5t-225.5 -92.5t-93.5 -224.5q0 -131 93.5 -224.5t225.5 -93.5z
M401 1065v123h512v-123h-512z" />
    <glyph glyph-name="obreve" unicode="&#x14f;" horiz-adv-x="1110" 
d="M657 903q188 0 320.5 -132.5t132.5 -319.5q0 -186 -133 -318.5t-320 -132.5t-319.5 132.5t-132.5 318.5q0 187 132.5 319.5t319.5 132.5zM657 133q132 0 226 93.5t94 224.5q0 132 -94 224.5t-226 92.5t-225.5 -92.5t-93.5 -224.5q0 -131 93.5 -224.5t225.5 -93.5z
M524 1438v-29q0 -60 39 -96q37 -37 94 -37q59 0 99 37q37 37 37 96v29h112v-29q0 -100 -74 -174t-174 -74q-98 0 -172 74q-75 72 -75 174v29h114z" />
    <glyph glyph-name="Odoubleacute" unicode="&#x150;" horiz-adv-x="1642" 
d="M924 1434q146 0 279 -57t229 -153t153 -228.5t57 -278.5t-57 -278.5t-153 -228.5t-229 -153t-279 -57t-279.5 57t-229.5 153t-153 228.5t-57 278.5t57 278.5t153 228.5t229.5 153t279.5 57zM924 133q159 0 294 78.5t213 213t78 292.5t-78 292.5t-213 212.5t-294 78
q-158 0 -293 -78t-214 -212.5t-79 -292.5t79 -293t214 -213t293 -78zM905 1982l129 -98l-71 -90l-175 -141l-86 69zM1239 1982l127 -98l-70 -90l-176 -141l-86 69z" />
    <glyph glyph-name="odoubleacute" unicode="&#x151;" horiz-adv-x="1110" 
d="M657 903q188 0 320.5 -132.5t132.5 -319.5q0 -186 -133 -318.5t-320 -132.5t-319.5 132.5t-132.5 318.5q0 187 132.5 319.5t319.5 132.5zM657 133q132 0 226 93.5t94 224.5q0 132 -94 224.5t-226 92.5t-225.5 -92.5t-93.5 -224.5q0 -131 93.5 -224.5t225.5 -93.5z
M639 1452l129 -98l-72 -90l-174 -142l-86 70zM973 1452l127 -98l-70 -90l-176 -142l-86 70z" />
    <glyph glyph-name="OE" unicode="&#x152;" horiz-adv-x="2537" 
d="M924 1434q146 0 279 -57t229 -153t153 -228.5t57 -278.5t-57 -278.5t-153 -228.5t-229 -153t-279 -57t-279.5 57t-229.5 153t-153 228.5t-57 278.5t57 278.5t153 228.5t229.5 153t279.5 57zM924 133q159 0 294 78.5t213 213t78 292.5t-78 292.5t-213 212.5t-294 78
q-158 0 -293 -78t-214 -212.5t-79 -292.5t79 -293t214 -213t293 -78zM2540 133v-133h-1029v1434h1029v-134h-895v-516h739v-135h-739v-516h895z" />
    <glyph glyph-name="oe" unicode="&#x153;" horiz-adv-x="1886" 
d="M657 903q188 0 320.5 -132.5t132.5 -319.5q0 -186 -133 -318.5t-320 -132.5t-319.5 132.5t-132.5 318.5q0 187 132.5 319.5t319.5 132.5zM657 133q132 0 226 93.5t94 224.5q0 132 -94 224.5t-226 92.5t-225.5 -92.5t-93.5 -224.5q0 -131 93.5 -224.5t225.5 -93.5z
M1888 451v-66h-764q24 -109 111 -180.5t201 -71.5q87 0 163 45.5t117 122.5l117 -63q-58 -110 -165 -174t-232 -64q-187 0 -320 132.5t-133 318.5q0 187 132.5 319.5t320.5 132.5t320 -132.5t132 -319.5zM1124 518h623q-23 108 -110.5 179t-200.5 71q-114 0 -201.5 -71
t-110.5 -179z" />
    <glyph glyph-name="Racute" unicode="&#x154;" 
d="M1233 1004q0 -119 -60.5 -218.5t-160.5 -156.5q101 -67 161 -176t60 -234v-219h-133v219q0 146 -105.5 250t-253.5 104h-403v-573h-133v1434h598q179 0 304.5 -126t125.5 -304zM803 709q123 0 210 86.5t87 208.5q0 123 -87 209.5t-210 86.5h-465v-591h465zM811 1819
l129 -99l-70 -90l-176 -141l-86 70z" />
    <glyph glyph-name="racute" unicode="&#x155;" horiz-adv-x="792" 
d="M760 752q-53 16 -103 16q-130 0 -225 -92q-94 -94 -94 -225v-451h-133v451q0 188 133 321q131 131 319 131q79 0 146 -24zM596 1288l129 -98l-70 -90l-176 -142l-86 70z" />
    <glyph glyph-name="Rcedilla" unicode="&#x156;" 
d="M1233 1004q0 -119 -60.5 -218.5t-160.5 -156.5q101 -67 161 -176t60 -234v-219h-133v219q0 146 -105.5 250t-253.5 104h-403v-573h-133v1434h598q179 0 304.5 -126t125.5 -304zM803 709q123 0 210 86.5t87 208.5q0 123 -87 209.5t-210 86.5h-465v-591h465zM688 -416
q-4 2 -18 15q-21 18 -21 49q0 28 21 49q20 20 49 20q31 0 51 -20q18 -21 18 -49q0 -18 -6 -33l-55 -145l-72 26z" />
    <glyph glyph-name="rcedilla" unicode="&#x157;" horiz-adv-x="792" 
d="M760 752q-53 16 -103 16q-130 0 -225 -92q-94 -94 -94 -225v-451h-133v451q0 188 133 321q131 131 319 131q79 0 146 -24zM274 -416q-4 2 -18 15q-23 20 -23 49q0 26 23 49q17 20 49 20q29 0 49 -20q21 -21 21 -49q0 -18 -6 -33l-58 -145l-71 26z" />
    <glyph glyph-name="Rcaron" unicode="&#x158;" 
d="M1233 1004q0 -119 -60.5 -218.5t-160.5 -156.5q101 -67 161 -176t60 -234v-219h-133v219q0 146 -105.5 250t-253.5 104h-403v-573h-133v1434h598q179 0 304.5 -126t125.5 -304zM803 709q123 0 210 86.5t87 208.5q0 123 -87 209.5t-210 86.5h-465v-591h465zM469 1761
l106 90l144 -172q1 2 11 13.5t35 41t50 60.5q41 49 49 57l105 -90l-103 -121l-102 -120h-88z" />
    <glyph glyph-name="rcaron" unicode="&#x159;" horiz-adv-x="792" 
d="M760 752q-53 16 -103 16q-130 0 -225 -92q-94 -94 -94 -225v-451h-133v451q0 188 133 321q131 131 319 131q79 0 146 -24zM254 1231l106 90l144 -172q1 2 11 13.5t35 41t50 60.5q41 49 49 57l105 -90l-103 -121q-28 -33 -55 -65t-36.5 -44t-10.5 -12h-88z" />
    <glyph glyph-name="Sacute" unicode="&#x15a;" 
d="M840 1434q162 0 277.5 -115t115.5 -277v-67h-133v67q0 106 -76.5 182t-183.5 76h-242q-107 0 -183.5 -76t-76.5 -182q0 -107 76.5 -182.5t183.5 -75.5h242q163 0 278 -115t115 -278q0 -161 -115 -276t-278 -115h-242q-163 0 -278 115t-115 276v68h133v-68
q0 -106 76.5 -182t183.5 -76h242q107 0 183.5 76t76.5 182q0 107 -76.5 182.5t-183.5 75.5h-242q-163 0 -278 115t-115 278q0 162 115.5 277t277.5 115h242zM811 1819l129 -99l-70 -90l-176 -141l-86 70z" />
    <glyph glyph-name="sacute" unicode="&#x15b;" horiz-adv-x="923" 
d="M342 229q8 -36 51 -65q55 -37 174 -37q118 0 183 41t65 92q0 72 -72 107q-72 34 -161 34h-9q-199 0 -282 68q-86 68 -86 174q0 59 35 121q36 61 116 100q74 38 219 41h9q138 0 217 -43q81 -47 114 -106q9 -15 23 -47l-125 -39q-9 43 -53 75q-55 43 -182 43h-7
q-131 0 -182 -45t-51 -100q0 -52 51 -86q53 -35 184 -35q172 0 275 -65q99 -64 102 -197v-6q0 -87 -51 -141q-50 -56 -139 -84q-92 -29 -191 -29h-6q-134 0 -209 37q-80 37 -114 96q-17 27 -25 51zM670 1288l129 -98l-70 -90l-176 -142l-86 70z" />
    <glyph glyph-name="Scircumflex" unicode="&#x15c;" 
d="M840 1434q162 0 277.5 -115t115.5 -277v-67h-133v67q0 106 -76.5 182t-183.5 76h-242q-107 0 -183.5 -76t-76.5 -182q0 -107 76.5 -182.5t183.5 -75.5h242q163 0 278 -115t115 -278q0 -161 -115 -276t-278 -115h-242q-163 0 -278 115t-115 276v68h133v-68
q0 -106 76.5 -182t183.5 -76h242q107 0 183.5 76t76.5 182q0 107 -76.5 182.5t-183.5 75.5h-242q-163 0 -278 115t-115 278q0 162 115.5 277t277.5 115h242zM676 1851h88q1 -1 10.5 -12t37.5 -44t54 -64l103 -123l-105 -88q-1 0 -49 57q-94 111 -96 113l-144 -170l-106 88z
" />
    <glyph glyph-name="scircumflex" unicode="&#x15d;" horiz-adv-x="923" 
d="M342 229q8 -36 51 -65q55 -37 174 -37q118 0 183 41t65 92q0 72 -72 107q-72 34 -161 34h-9q-199 0 -282 68q-86 68 -86 174q0 59 35 121q36 61 116 100q74 38 219 41h9q138 0 217 -43q81 -47 114 -106q9 -15 23 -47l-125 -39q-9 43 -53 75q-55 43 -182 43h-7
q-131 0 -182 -45t-51 -100q0 -52 51 -86q53 -35 184 -35q172 0 275 -65q99 -64 102 -197v-6q0 -87 -51 -141q-50 -56 -139 -84q-92 -29 -191 -29h-6q-134 0 -209 37q-80 37 -114 96q-17 27 -25 51zM535 1321h88q1 -1 11 -13t36 -42.5t55 -65.5l102 -123l-104 -88l-49 58
q-89 105 -96 112l-144 -170l-106 88z" />
    <glyph glyph-name="Scedilla" unicode="&#x15e;" 
d="M840 1434q162 0 277.5 -115t115.5 -277v-67h-133v67q0 106 -76.5 182t-183.5 76h-242q-107 0 -183.5 -76t-76.5 -182q0 -107 76.5 -182.5t183.5 -75.5h242q163 0 278 -115t115 -278q0 -161 -115 -276t-278 -115h-242q-163 0 -278 115t-115 276v68h133v-68
q0 -106 76.5 -182t183.5 -76h242q107 0 183.5 76t76.5 182q0 107 -76.5 182.5t-183.5 75.5h-242q-163 0 -278 115t-115 278q0 162 115.5 277t277.5 115h242zM709 -334q-69 0 -119 62q-8 5 -8 8l82 59q20 -26 45 -26q23 0 34 14q13 16 13 27q0 13 -11 24q-9 12 -28 12
q-7 0 -101 -32l37 186h103l-13 -59q68 -9 95 -62q18 -35 18 -69q0 -62 -45 -101q-46 -43 -102 -43z" />
    <glyph glyph-name="scedilla" unicode="&#x15f;" horiz-adv-x="923" 
d="M342 229q8 -36 51 -65q55 -37 174 -37q118 0 183 41t65 92q0 72 -72 107q-72 34 -161 34h-9q-199 0 -282 68q-86 68 -86 174q0 59 35 121q36 61 116 100q74 38 219 41h9q138 0 217 -43q81 -47 114 -106q9 -15 23 -47l-125 -39q-9 43 -53 75q-55 43 -182 43h-7
q-131 0 -182 -45t-51 -100q0 -52 51 -86q53 -35 184 -35q172 0 275 -65q99 -64 102 -197v-6q0 -87 -51 -141q-50 -56 -139 -84q-92 -29 -191 -29h-6q-134 0 -209 37q-80 37 -114 96q-17 27 -25 51zM567 -334q-68 0 -118 62q-9 6 -9 8l82 59q20 -26 45 -26q24 0 35 14
q12 15 12 27q0 14 -10 24q-9 12 -29 12q-6 0 -100 -32l37 186h102l-12 -59q67 -9 94 -62q19 -36 19 -69q0 -62 -45 -101q-46 -43 -103 -43z" />
    <glyph glyph-name="Scaron" unicode="&#x160;" 
d="M840 1434q162 0 277.5 -115t115.5 -277v-67h-133v67q0 106 -76.5 182t-183.5 76h-242q-107 0 -183.5 -76t-76.5 -182q0 -107 76.5 -182.5t183.5 -75.5h242q163 0 278 -115t115 -278q0 -161 -115 -276t-278 -115h-242q-163 0 -278 115t-115 276v68h133v-68
q0 -106 76.5 -182t183.5 -76h242q107 0 183.5 76t76.5 182q0 107 -76.5 182.5t-183.5 75.5h-242q-163 0 -278 115t-115 278q0 162 115.5 277t277.5 115h242zM469 1761l106 90l144 -172q1 2 11 13.5t35 41t50 60.5q41 49 49 57l105 -90l-103 -121l-102 -120h-88z" />
    <glyph glyph-name="scaron" unicode="&#x161;" horiz-adv-x="923" 
d="M342 229q8 -36 51 -65q55 -37 174 -37q118 0 183 41t65 92q0 72 -72 107q-72 34 -161 34h-9q-199 0 -282 68q-86 68 -86 174q0 59 35 121q36 61 116 100q74 38 219 41h9q138 0 217 -43q81 -47 114 -106q9 -15 23 -47l-125 -39q-9 43 -53 75q-55 43 -182 43h-7
q-131 0 -182 -45t-51 -100q0 -52 51 -86q53 -35 184 -35q172 0 275 -65q99 -64 102 -197v-6q0 -87 -51 -141q-50 -56 -139 -84q-92 -29 -191 -29h-6q-134 0 -209 37q-80 37 -114 96q-17 27 -25 51zM328 1231l106 90l144 -172q1 2 11 13.5t35 41t50 60.5q41 49 49 57l104 -90
l-102 -121q-28 -33 -55 -65t-36.5 -44t-10.5 -12h-88z" />
    <glyph glyph-name="Tcedilla" unicode="&#x162;" 
d="M205 1300v134h1028v-134h-447v-1300h-135v1300h-446zM709 -334q-69 0 -119 62q-8 5 -8 8l82 59q20 -26 45 -26q23 0 34 14q13 16 13 27q0 13 -11 24q-9 12 -28 12q-7 0 -101 -32l37 186h103l-13 -59q68 -9 95 -62q18 -35 18 -69q0 -62 -45 -101q-46 -43 -102 -43z" />
    <glyph glyph-name="tcedilla" unicode="&#x163;" horiz-adv-x="770" 
d="M643 133h123v-133h-123q-152 0 -251 105t-99 266v397h-96v135h96v369h135v-369h168v-135h-168v-397q0 -106 59.5 -172t155.5 -66zM471 -334q-69 0 -119 62q-8 5 -8 8l82 59q20 -26 45 -26q24 0 35 14q12 15 12 27q0 14 -10 24q-9 12 -29 12q-6 0 -100 -32l37 186h102
l-12 -59q67 -9 94 -62q18 -35 18 -69q0 -62 -45 -101q-46 -43 -102 -43z" />
    <glyph glyph-name="Tcaron" unicode="&#x164;" 
d="M205 1300v134h1028v-134h-447v-1300h-135v1300h-446zM469 1761l106 90l144 -172q1 2 11 13.5t35 41t50 60.5q41 49 49 57l105 -90l-103 -121l-102 -120h-88z" />
    <glyph glyph-name="tcaron" unicode="&#x165;" horiz-adv-x="1177" 
d="M643 133h123v-133h-123q-152 0 -251 105t-99 266v397h-96v135h96v369h135v-369h168v-135h-168v-397q0 -106 59.5 -172t155.5 -66zM1028 1239q-15 6 -27 21q-30 27 -30 69t30 72q29 29 70 29q40 0 72 -29q28 -31 28 -72q0 -25 -10 -45l-80 -209l-102 39z" />
    <glyph glyph-name="Tbar" unicode="&#x166;" 
d="M180 1300v134h1028v-134h-446v-1300h-135v1300h-447zM1233 784v-135h-1077v135h1077z" />
    <glyph glyph-name="tbar" unicode="&#x167;" horiz-adv-x="770" 
d="M389 133h123v-133h-123q-152 0 -251 105t-99 266v397h-96v135h96v369h135v-369h168v-135h-168v-397q0 -106 59.5 -172t155.5 -66zM766 575v-135h-1077v135h1077z" />
    <glyph glyph-name="Utilde" unicode="&#x168;" 
d="M1100 512v922h133v-922q0 -139 -69 -257t-187.5 -186.5t-257.5 -68.5t-257.5 68.5t-187.5 186.5t-69 257v922h133v-922q0 -157 112 -268t269 -111t269 111t112 268zM748 1739l16 -13q26 -18 59 -12q18 5 31.5 16t34.5 42l108 -74q-66 -93 -149 -111q-84 -16 -158 33
l-16 12q-28 19 -60 13q-17 -3 -30 -14.5t-35 -43.5l-109 74q66 96 150 111q84 16 158 -33z" />
    <glyph glyph-name="utilde" unicode="&#x169;" horiz-adv-x="1110" 
d="M977 903h133v-452q0 -186 -133 -318.5t-320 -132.5t-319.5 132.5t-132.5 318.5v452h133v-452q0 -131 93.5 -224.5t225.5 -93.5t226 93.5t94 224.5v452zM686 1208l16 -12q27 -18 60 -12q18 5 31 15.5t34 41.5l109 -74q-65 -91 -150 -110q-83 -16 -157 33l-17 12
q-26 18 -59 12q-18 -3 -31.5 -14.5t-34.5 -42.5l-108 73q66 96 149 111q84 16 158 -33z" />
    <glyph glyph-name="Umacron" unicode="&#x16a;" 
d="M1100 512v922h133v-922q0 -139 -69 -257t-187.5 -186.5t-257.5 -68.5t-257.5 68.5t-187.5 186.5t-69 257v922h133v-922q0 -157 112 -268t269 -111t269 111t112 268zM463 1595v123h512v-123h-512z" />
    <glyph glyph-name="umacron" unicode="&#x16b;" horiz-adv-x="1110" 
d="M977 903h133v-452q0 -186 -133 -318.5t-320 -132.5t-319.5 132.5t-132.5 318.5v452h133v-452q0 -131 93.5 -224.5t225.5 -93.5t226 93.5t94 224.5v452zM401 1065v123h512v-123h-512z" />
    <glyph glyph-name="ubreve" unicode="&#x16d;" horiz-adv-x="1110" 
d="M977 903h133v-452q0 -186 -133 -318.5t-320 -132.5t-319.5 132.5t-132.5 318.5v452h133v-452q0 -131 93.5 -224.5t225.5 -93.5t226 93.5t94 224.5v452zM524 1438v-29q0 -60 39 -96q37 -37 94 -37q59 0 99 37q37 37 37 96v29h112v-29q0 -100 -74 -174t-174 -74
q-98 0 -172 74q-75 72 -75 174v29h114z" />
    <glyph glyph-name="Uring" unicode="&#x16e;" 
d="M1100 512v922h133v-922q0 -139 -69 -257t-187.5 -186.5t-257.5 -68.5t-257.5 68.5t-187.5 186.5t-69 257v922h133v-922q0 -157 112 -268t269 -111t269 111t112 268zM719 1907q82 0 141.5 -59.5t59.5 -141.5q0 -80 -60 -140.5t-141 -60.5t-141 60.5t-60 140.5
q0 82 59.5 141.5t141.5 59.5zM719 1599q46 0 76 30.5t30 76.5t-30 76t-76 30t-76.5 -30t-30.5 -76t30.5 -76.5t76.5 -30.5z" />
    <glyph glyph-name="uring" unicode="&#x16f;" horiz-adv-x="1110" 
d="M977 903h133v-452q0 -186 -133 -318.5t-320 -132.5t-319.5 132.5t-132.5 318.5v452h133v-452q0 -131 93.5 -224.5t225.5 -93.5t226 93.5t94 224.5v452zM657 1376q82 0 141.5 -59t59.5 -141q0 -80 -60 -140.5t-141 -60.5t-140.5 60.5t-59.5 140.5q0 82 59 141t141 59z
M657 1069q46 0 76.5 30.5t30.5 76.5t-30.5 76t-76.5 30t-76 -30t-30 -76t30 -76.5t76 -30.5z" />
    <glyph glyph-name="Udoubleacute" unicode="&#x170;" 
d="M1100 512v922h133v-922q0 -139 -69 -257t-187.5 -186.5t-257.5 -68.5t-257.5 68.5t-187.5 186.5t-69 257v922h133v-922q0 -157 112 -268t269 -111t269 111t112 268zM700 1982l129 -98l-71 -90l-174 -141l-86 69zM1034 1982l127 -98l-69 -90l-177 -141l-86 69z" />
    <glyph glyph-name="udoubleacute" unicode="&#x171;" horiz-adv-x="1110" 
d="M977 903h133v-452q0 -186 -133 -318.5t-320 -132.5t-319.5 132.5t-132.5 318.5v452h133v-452q0 -131 93.5 -224.5t225.5 -93.5t226 93.5t94 224.5v452zM639 1452l129 -98l-72 -90l-174 -142l-86 70zM973 1452l127 -98l-70 -90l-176 -142l-86 70z" />
    <glyph glyph-name="Uogonek" unicode="&#x172;" 
d="M1100 512v922h133v-922q0 -139 -69 -257t-187.5 -186.5t-257.5 -68.5t-257.5 68.5t-187.5 186.5t-69 257v922h133v-922q0 -157 112 -268t269 -111t269 111t112 268zM860 -383q-215 0 -215 174q0 101 92 225l82 -4q-59 -101 -59 -168q0 -98 147 -98h6l-6 -127z" />
    <glyph glyph-name="uogonek" unicode="&#x173;" horiz-adv-x="1110" 
d="M977 903h133v-452q0 -186 -133 -318.5t-320 -132.5t-319.5 132.5t-132.5 318.5v452h133v-452q0 -131 93.5 -224.5t225.5 -93.5t226 93.5t94 224.5v452zM795 -383q-217 0 -217 174q0 101 92 225l82 -4q-60 -108 -60 -168q0 -98 148 -98h6l-6 -127z" />
    <glyph glyph-name="Wcircumflex" unicode="&#x174;" horiz-adv-x="1783" 
d="M1645 1434h139l-428 -1434h-101l-260 870l-262 -870h-98l-430 1434h139l340 -1133l311 1036l310 -1036zM950 1851h88q23 -23 103 -120l102 -123l-104 -88q-1 0 -5.5 5.5t-16.5 21t-25 30.5q-28 32 -52 60t-34 41l-11 12l-145 -170l-105 88z" />
    <glyph glyph-name="wcircumflex" unicode="&#x175;" horiz-adv-x="1353" 
d="M1219 903h135v-584q0 -132 -95 -225.5t-227 -93.5q-75 0 -142 33.5t-112 91.5q-43 -58 -110 -91.5t-144 -33.5q-132 0 -225.5 93.5t-93.5 225.5v584h133v-584q0 -77 55 -131.5t131 -54.5q78 0 132.5 54.5t54.5 131.5v584h135v-584q0 -77 55 -131.5t131 -54.5q77 0 132 55
t55 131v584zM735 1321h88q18 -18 103 -121l102 -123l-104 -88q-1 0 -5.5 6t-16.5 21.5t-25 30.5q-27 31 -51.5 59t-34.5 40t-11 13l-145 -170l-105 88z" />
    <glyph glyph-name="Ycircumflex" unicode="&#x176;" 
d="M1100 997v437h133v-437q0 -194 -128.5 -338.5t-318.5 -169.5v-489h-135v489q-190 25 -318 169.5t-128 338.5v437h133v-437q0 -156 112 -266t269 -110t269 110t112 266zM676 1851h88q1 -1 10.5 -12t37.5 -44t54 -64l103 -123l-105 -88q-1 0 -49 57q-94 111 -96 113
l-144 -170l-106 88z" />
    <glyph glyph-name="ycircumflex" unicode="&#x177;" horiz-adv-x="1110" 
d="M975 903h135v-983q0 -186 -133 -318t-320 -132q-126 0 -232.5 63.5t-166.5 173.5l-31 60l117 63l33 -59q41 -77 117 -122.5t163 -45.5q132 0 225 93t93 224v211q-61 -63 -144 -97t-174 -34q-187 0 -319.5 132.5t-132.5 318.5v452h133v-452q0 -131 93.5 -224.5
t225.5 -93.5q87 0 163.5 45.5t117.5 122.5l31 59l6 -4v547zM614 1321h88q1 -1 103 -121l102 -123l-104 -88l-49 58q-83 98 -97 112l-143 -170l-106 88z" />
    <glyph glyph-name="Ydieresis" unicode="&#x178;" 
d="M1100 997v437h133v-437q0 -194 -128.5 -338.5t-318.5 -169.5v-489h-135v489q-190 25 -318 169.5t-128 338.5v437h133v-437q0 -156 112 -266t269 -110t269 110t112 266zM575 1761q41 0 71 -29.5t30 -70.5t-30 -70.5t-71 -29.5t-70.5 29.5t-29.5 70.5t29.5 70.5t70.5 29.5z
M862 1761q41 0 71 -29.5t30 -70.5t-30 -70.5t-71 -29.5t-70.5 29.5t-29.5 70.5t29.5 70.5t70.5 29.5z" />
    <glyph glyph-name="Zacute" unicode="&#x179;" horiz-adv-x="1353" 
d="M1354 1434l-895 -1301h835v-133h-1089l895 1300h-834v134h1088zM872 1819l129 -99l-71 -90l-174 -141l-88 70z" />
    <glyph glyph-name="zacute" unicode="&#x17a;" horiz-adv-x="1228" 
d="M1235 903v-110l-612 -660h684v-133h-881v119l604 649h-573v135h778zM958 1288l129 -98l-69 -90l-176 -142l-86 70z" />
    <glyph glyph-name="Zdotaccent" unicode="&#x17b;" horiz-adv-x="1353" 
d="M1354 1434l-895 -1301h835v-133h-1089l895 1300h-834v134h1088zM780 1798q34 0 59 -24.5t25 -59.5t-25 -60.5t-59 -25.5q-35 0 -60.5 25.5t-25.5 60.5t25.5 59.5t60.5 24.5z" />
    <glyph glyph-name="zdotaccent" unicode="&#x17c;" horiz-adv-x="1228" 
d="M1235 903v-110l-612 -660h684v-133h-881v119l604 649h-573v135h778zM866 1268q35 0 60.5 -24.5t25.5 -59.5t-25.5 -60.5t-60.5 -25.5t-60.5 25.5t-25.5 60.5t25.5 59.5t60.5 24.5z" />
    <glyph glyph-name="Zcaron" unicode="&#x17d;" horiz-adv-x="1353" 
d="M1354 1434l-895 -1301h835v-133h-1089l895 1300h-834v134h1088zM530 1761l105 90l145 -172q1 3 97 115q13 16 25 30t16.5 20t5.5 7l104 -90l-102 -121q-99 -120 -103 -120h-88z" />
    <glyph glyph-name="zcaron" unicode="&#x17e;" horiz-adv-x="1228" 
d="M1235 903v-110l-612 -660h684v-133h-881v119l604 649h-573v135h778zM616 1231l107 90l143 -172q1 2 11.5 14t35 40.5t50.5 60.5q41 49 49 57l104 -90l-102 -121l-103 -121h-88z" />
    <glyph glyph-name="longs" unicode="&#x17f;" horiz-adv-x="770" 
d="M739 1139q-96 0 -155.5 -66t-59.5 -172v-901h-135v901q0 161 99 266t251 105h123v-133h-123z" />
    <glyph glyph-name="DZcaron" unicode="&#x1c4;" horiz-adv-x="2703" 
d="M1350 717q0 -145 -57 -278t-153.5 -229t-229.5 -153t-279 -57h-426v1434h426q146 0 279.5 -57t229.5 -153t153 -228.5t57 -278.5zM338 1300v-1167h293q158 0 292.5 78.5t212.5 213t78 292.5t-78 292.5t-212.5 212.5t-292.5 78h-293zM2703 1434l-895 -1301h836v-133h-1090
l895 1300h-833v134h1087zM1880 1761l105 90l145 -172q3 5 96 115q13 16 25 30t16.5 20t5.5 7l105 -90l-103 -121q-99 -120 -102 -120h-88z" />
    <glyph glyph-name="Dzcaron" unicode="&#x1c5;" horiz-adv-x="2578" 
d="M1350 717q0 -145 -57 -278t-153.5 -229t-229.5 -153t-279 -57h-426v1434h426q146 0 279.5 -57t229.5 -153t153 -228.5t57 -278.5zM338 1300v-1167h293q158 0 292.5 78.5t212.5 213t78 292.5t-78 292.5t-212.5 212.5t-292.5 78h-293zM2474 903v-110l-612 -660h684v-133
h-881v119l604 649h-573v135h778zM1855 1231l107 90l143 -172q1 2 11.5 14t35 40.5t50.5 60.5q41 49 49 57l104 -90l-102 -121l-103 -121h-88z" />
    <glyph glyph-name="dzcaron" unicode="&#x1c6;" horiz-adv-x="2338" 
d="M977 1434h133v-983q0 -186 -133 -318.5t-320 -132.5t-319.5 132.5t-132.5 318.5q0 187 132.5 319.5t319.5 132.5q90 0 173 -34.5t147 -96.5v662zM977 451v96l-6 -4l-33 59q-41 76 -117 121t-164 45q-132 0 -225.5 -92.5t-93.5 -224.5q0 -131 93.5 -224.5t225.5 -93.5
t226 93.5t94 224.5zM2234 903v-110l-612 -660h684v-133h-881v119l605 649h-574v135h778zM1616 1231l106 90l144 -172q1 2 11 13.5t35 41t50 60.5q41 49 49 57l105 -90l-103 -121q-28 -33 -55 -65t-36.5 -44t-10.5 -12h-88z" />
    <glyph glyph-name="LJ" unicode="&#x1c7;" horiz-adv-x="2019" 
d="M719 0q-139 0 -257.5 68.5t-187.5 186.5t-69 257v922h133v-922q0 -157 112 -268t269 -111h514v-133h-514zM2019 512q0 -139 -69 -257t-187.5 -186.5t-257.5 -68.5h-67v133h67q157 0 268 111t111 268v922h135v-922z" />
    <glyph glyph-name="Lj" unicode="&#x1c8;" horiz-adv-x="1546" 
d="M719 0q-139 0 -257.5 68.5t-187.5 186.5t-69 257v922h133v-922q0 -157 112 -268t269 -111h514v-133h-514zM1370 -80v983h135v-983q0 -186 -132.5 -318t-319.5 -132h-68v133h68q131 0 224 93.5t93 223.5zM1436 971q-41 0 -71 29.5t-30 70.5q0 42 29.5 71t71.5 29t71 -29
t29 -71q0 -41 -29.5 -70.5t-70.5 -29.5z" />
    <glyph glyph-name="lj" unicode="&#x1c9;" horiz-adv-x="735" 
d="M393 133h66v-133h-66q-78 0 -133 55t-55 133v1246h133v-1246q0 -23 16 -39t39 -16zM623 -80v983h135v-983q0 -186 -133 -318t-320 -132h-67v133h67q131 0 224.5 93.5t93.5 223.5zM688 971q-41 0 -70.5 29.5t-29.5 70.5q0 42 29 71t71 29t71 -29t29 -71q0 -41 -29.5 -70.5
t-70.5 -29.5z" />
    <glyph glyph-name="NJ" unicode="&#x1ca;" horiz-adv-x="2019" 
d="M1233 1434v-1434h-103l-792 1151v-1151h-133v1434h102l793 -1151v1151h133zM2019 512q0 -139 -69 -257t-187.5 -186.5t-257.5 -68.5h-67v133h67q157 0 268 111t111 268v922h135v-922z" />
    <glyph glyph-name="Nj" unicode="&#x1cb;" horiz-adv-x="1533" 
d="M1233 1434v-1434h-103l-792 1151v-1151h-133v1434h102l793 -1151v1151h133zM1374 -80v983h135v-983q0 -186 -132.5 -318t-319.5 -132h-68v133h68q131 0 224 93.5t93 223.5zM1440 971q-41 0 -71 29.5t-30 70.5q0 42 29.5 71t71.5 29t71 -29t29 -71q0 -41 -29.5 -70.5
t-70.5 -29.5z" />
    <glyph glyph-name="nj" unicode="&#x1cc;" horiz-adv-x="1865" 
d="M657 903q188 0 320.5 -132.5t132.5 -319.5v-451h-133v451q0 132 -94 224.5t-226 92.5t-225.5 -92.5t-93.5 -224.5v-451h-133v451q0 187 132.5 319.5t319.5 132.5zM1335 -80v983h135v-983q0 -186 -132.5 -318t-319.5 -132h-68v133h68q130 0 223.5 93.5t93.5 223.5z
M1401 971q-41 0 -71 29.5t-30 70.5q0 42 29.5 71t71.5 29t71 -29t29 -71q0 -41 -29.5 -70.5t-70.5 -29.5z" />
    <glyph glyph-name="Acaron" unicode="&#x1cd;" 
d="M338 426v-426h-133v922q0 139 69 257t187.5 186.5t257.5 68.5t257.5 -68.5t187.5 -186.5t69 -257v-922h-133v426h-762zM338 922v-361h762v361q0 156 -112 267t-269 111t-269 -111t-112 -267zM469 1761l106 90l144 -172q1 2 11 13.5t35 41t50 60.5q41 49 49 57l105 -90
l-103 -121l-102 -120h-88z" />
    <glyph glyph-name="acaron" unicode="&#x1ce;" horiz-adv-x="1110" 
d="M657 903q188 0 320.5 -132.5t132.5 -319.5v-451h-133v131q-63 -63 -146 -97t-174 -34q-187 0 -319.5 132.5t-132.5 318.5q0 187 132.5 319.5t319.5 132.5zM977 356v95q0 132 -94 224.5t-226 92.5t-225.5 -92.5t-93.5 -224.5q0 -131 93.5 -224.5t225.5 -93.5
q87 0 163.5 45.5t117.5 122.5l33 59zM408 1231l106 90l143 -172q1 2 11.5 14t35 40.5t50.5 60.5q41 49 49 57l104 -90l-102 -121l-103 -121h-88z" />
    <glyph glyph-name="Icaron" unicode="&#x1cf;" horiz-adv-x="337" 
d="M156 0h-133v1434h133v-1434zM-160 1761l105 90l145 -172q3 5 96 115q13 16 25 30t16.5 20t5.5 7l105 -90l-102 -121q-99 -120 -103 -120h-88z" />
    <glyph glyph-name="icaron" unicode="&#x1d0;" horiz-adv-x="405" 
d="M223 0h-135v903h135v-903zM-94 1231l106 90l144 -172q1 2 11 13.5t35 41t50 60.5q41 49 49 57l105 -90l-103 -121q-28 -33 -55 -65t-36.5 -44t-10.5 -12h-88z" />
    <glyph glyph-name="Ocaron" unicode="&#x1d1;" horiz-adv-x="1642" 
d="M924 1434q146 0 279 -57t229 -153t153 -228.5t57 -278.5t-57 -278.5t-153 -228.5t-229 -153t-279 -57t-279.5 57t-229.5 153t-153 228.5t-57 278.5t57 278.5t153 228.5t229.5 153t279.5 57zM924 133q159 0 294 78.5t213 213t78 292.5t-78 292.5t-213 212.5t-294 78
q-158 0 -293 -78t-214 -212.5t-79 -292.5t79 -293t214 -213t293 -78zM674 1761l106 90l144 -172q1 2 11 13.5t35 41t50 60.5q41 49 49 57l105 -90l-103 -121l-102 -120h-88z" />
    <glyph glyph-name="ocaron" unicode="&#x1d2;" horiz-adv-x="1110" 
d="M657 903q188 0 320.5 -132.5t132.5 -319.5q0 -186 -133 -318.5t-320 -132.5t-319.5 132.5t-132.5 318.5q0 187 132.5 319.5t319.5 132.5zM657 133q132 0 226 93.5t94 224.5q0 132 -94 224.5t-226 92.5t-225.5 -92.5t-93.5 -224.5q0 -131 93.5 -224.5t225.5 -93.5z
M408 1231l106 90l143 -172q1 2 11.5 14t35 40.5t50.5 60.5q41 49 49 57l104 -90l-102 -121l-103 -121h-88z" />
    <glyph glyph-name="Ucaron" unicode="&#x1d3;" 
d="M1100 512v922h133v-922q0 -139 -69 -257t-187.5 -186.5t-257.5 -68.5t-257.5 68.5t-187.5 186.5t-69 257v922h133v-922q0 -157 112 -268t269 -111t269 111t112 268zM469 1761l106 90l144 -172q1 2 11 13.5t35 41t50 60.5q41 49 49 57l105 -90l-103 -121l-102 -120h-88z
" />
    <glyph glyph-name="ucaron" unicode="&#x1d4;" horiz-adv-x="1110" 
d="M977 903h133v-452q0 -186 -133 -318.5t-320 -132.5t-319.5 132.5t-132.5 318.5v452h133v-452q0 -131 93.5 -224.5t225.5 -93.5t226 93.5t94 224.5v452zM408 1231l106 90l143 -172q1 2 11.5 14t35 40.5t50.5 60.5q41 49 49 57l104 -90l-102 -121l-103 -121h-88z" />
    <glyph glyph-name="Gcaron" unicode="&#x1e6;" horiz-adv-x="1642" 
d="M856 784h786v-67q0 -143 -54.5 -274t-155.5 -232q-102 -104 -234.5 -157.5t-273.5 -53.5t-273.5 53.5t-234.5 157.5q-102 102 -156.5 232t-54.5 274t54.5 274.5t156.5 233.5q138 137 323 186t370 -0.5t323 -187.5l47 -47l-95 -95l-47 47q-112 112 -262.5 151.5t-301.5 0
t-263 -151.5q-172 -172 -172 -411q0 -240 172 -412q112 -112 262.5 -151.5t301.5 0t263 151.5q143 143 168 344h-649v135zM674 1761l106 90l144 -172q1 2 11 13.5t35 41t50 60.5q41 49 49 57l105 -90l-103 -121l-102 -120h-88z" />
    <glyph glyph-name="Kcaron" unicode="&#x1e8;" horiz-adv-x="1261" 
d="M840 649h-318l-184 -178v-471h-133v1434h133v-775l829 803l95 -96l-600 -582h178q163 0 278 -115t115 -278v-391h-133v391q0 107 -76.5 182.5t-183.5 75.5zM483 1761l107 90l143 -172q1 2 11 13.5t35 41t50 60.5q36 43 50 57l104 -90l-102 -121q-102 -120 -103 -120h-88z
" />
    <glyph glyph-name="kcaron" unicode="&#x1e9;" horiz-adv-x="972" 
d="M504 561q122 -11 204.5 -100.5t82.5 -212.5v-248h-134v248q0 75 -53.5 128.5t-128.5 53.5h-127l-164 -137v-293h-133v1434h133v-967l547 463l88 -103zM-102 1921l104 90l145 -170q11 11 95 113q41 49 49 57l104 -88l-102 -123q-102 -120 -103 -121h-88z" />
    <glyph glyph-name="DZ" unicode="&#x1f1;" horiz-adv-x="2703" 
d="M1350 717q0 -145 -57 -278t-153.5 -229t-229.5 -153t-279 -57h-426v1434h426q146 0 279.5 -57t229.5 -153t153 -228.5t57 -278.5zM338 1300v-1167h293q158 0 292.5 78.5t212.5 213t78 292.5t-78 292.5t-212.5 212.5t-292.5 78h-293zM2703 1434l-895 -1301h836v-133h-1090
l895 1300h-833v134h1087z" />
    <glyph glyph-name="Dz" unicode="&#x1f2;" horiz-adv-x="2578" 
d="M1350 717q0 -145 -57 -278t-153.5 -229t-229.5 -153t-279 -57h-426v1434h426q146 0 279.5 -57t229.5 -153t153 -228.5t57 -278.5zM338 1300v-1167h293q158 0 292.5 78.5t212.5 213t78 292.5t-78 292.5t-212.5 212.5t-292.5 78h-293zM2474 903v-110l-612 -660h684v-133
h-881v119l604 649h-573v135h778z" />
    <glyph glyph-name="dz" unicode="&#x1f3;" horiz-adv-x="2338" 
d="M977 1434h133v-983q0 -186 -133 -318.5t-320 -132.5t-319.5 132.5t-132.5 318.5q0 187 132.5 319.5t319.5 132.5q90 0 173 -34.5t147 -96.5v662zM977 451v96l-6 -4l-33 59q-41 76 -117 121t-164 45q-132 0 -225.5 -92.5t-93.5 -224.5q0 -131 93.5 -224.5t225.5 -93.5
t226 93.5t94 224.5zM2234 903v-110l-612 -660h684v-133h-881v119l605 649h-574v135h778z" />
    <glyph glyph-name="Gacute" unicode="&#x1f4;" horiz-adv-x="1642" 
d="M856 784h786v-67q0 -143 -54.5 -274t-155.5 -232q-102 -104 -234.5 -157.5t-273.5 -53.5t-273.5 53.5t-234.5 157.5q-102 102 -156.5 232t-54.5 274t54.5 274.5t156.5 233.5q138 137 323 186t370 -0.5t323 -187.5l47 -47l-95 -95l-47 47q-112 112 -262.5 151.5t-301.5 0
t-263 -151.5q-172 -172 -172 -411q0 -240 172 -412q112 -112 262.5 -151.5t301.5 0t263 151.5q143 143 168 344h-649v135zM1016 1819l129 -99l-70 -90l-176 -141l-86 70z" />
    <glyph glyph-name="gacute" unicode="&#x1f5;" horiz-adv-x="1110" 
d="M657 903q188 0 320.5 -132.5t132.5 -319.5v-531q0 -186 -133 -318t-320 -132q-126 0 -232.5 63.5t-166.5 173.5l-31 60l117 63l33 -59q41 -77 117 -122.5t163 -45.5q132 0 226 93t94 224v211q-64 -62 -147 -96.5t-173 -34.5q-187 0 -319.5 132.5t-132.5 318.5
q0 187 132.5 319.5t319.5 132.5zM977 356v95q0 132 -94 224.5t-226 92.5t-225.5 -92.5t-93.5 -224.5q0 -131 93.5 -224.5t225.5 -93.5q87 0 163.5 45.5t117.5 122.5l31 59zM750 1288l129 -98l-70 -90l-176 -142l-86 70z" />
    <glyph glyph-name="Ngrave" unicode="&#x1f8;" 
d="M1233 1434v-1434h-103l-792 1151v-1151h-133v1434h102l793 -1151v1151h133zM627 1819l202 -260l-86 -70l-176 141l-69 90z" />
    <glyph glyph-name="ngrave" unicode="&#x1f9;" horiz-adv-x="1110" 
d="M657 903q188 0 320.5 -132.5t132.5 -319.5v-451h-133v451q0 132 -94 224.5t-226 92.5t-225.5 -92.5t-93.5 -224.5v-451h-133v451q0 187 132.5 319.5t319.5 132.5zM565 1288l203 -260l-86 -70l-176 142l-70 90z" />
    <glyph glyph-name="Scommaaccent" unicode="&#x218;" 
d="M840 1434q162 0 277.5 -115t115.5 -277v-67h-133v67q0 106 -76.5 182t-183.5 76h-242q-107 0 -183.5 -76t-76.5 -182q0 -107 76.5 -182.5t183.5 -75.5h242q163 0 278 -115t115 -278q0 -161 -115 -276t-278 -115h-242q-163 0 -278 115t-115 276v68h133v-68
q0 -106 76.5 -182t183.5 -76h242q107 0 183.5 76t76.5 182q0 107 -76.5 182.5t-183.5 75.5h-242q-163 0 -278 115t-115 278q0 162 115.5 277t277.5 115h242zM688 -416q-4 2 -18 15q-21 18 -21 49q0 28 21 49q20 20 49 20q31 0 51 -20q18 -21 18 -49q0 -18 -6 -33l-55 -145
l-72 26z" />
    <glyph glyph-name="scommaaccent" unicode="&#x219;" horiz-adv-x="923" 
d="M342 229q8 -36 51 -65q55 -37 174 -37q118 0 183 41t65 92q0 72 -72 107q-72 34 -161 34h-9q-199 0 -282 68q-86 68 -86 174q0 59 35 121q36 61 116 100q74 38 219 41h9q138 0 217 -43q81 -47 114 -106q9 -15 23 -47l-125 -39q-9 43 -53 75q-55 43 -182 43h-7
q-131 0 -182 -45t-51 -100q0 -52 51 -86q53 -35 184 -35q172 0 275 -65q99 -64 102 -197v-6q0 -87 -51 -141q-50 -56 -139 -84q-92 -29 -191 -29h-6q-134 0 -209 37q-80 37 -114 96q-17 27 -25 51zM547 -416q-6 2 -19 15q-20 17 -20 49q0 29 20 49t50 20q31 0 51 -20
q18 -21 18 -49q0 -18 -6 -33l-55 -145l-72 26z" />
    <glyph glyph-name="Tcommaaccent" unicode="&#x21a;" 
d="M205 1300v134h1028v-134h-447v-1300h-135v1300h-446zM688 -416q-4 2 -18 15q-21 18 -21 49q0 28 21 49q20 20 49 20q31 0 51 -20q18 -21 18 -49q0 -18 -6 -33l-55 -145l-72 26z" />
    <glyph glyph-name="tcommaaccent" unicode="&#x21b;" horiz-adv-x="770" 
d="M643 133h123v-133h-123q-152 0 -251 105t-99 266v397h-96v135h96v369h135v-369h168v-135h-168v-397q0 -106 59.5 -172t155.5 -66zM451 -416q-6 2 -19 15q-20 17 -20 49q0 29 20 49t49 20q31 0 51 -20q19 -22 19 -49q0 -18 -6 -33l-56 -145l-71 26z" />
    <glyph glyph-name="Hcaron" unicode="&#x21e;" 
d="M338 649v-649h-133v1434h133v-650h762v650h133v-1434h-133v649h-762zM469 1761l106 90l144 -172q1 2 11 13.5t35 41t50 60.5q41 49 49 57l105 -90l-103 -121l-102 -120h-88z" />
    <glyph glyph-name="hcaron" unicode="&#x21f;" horiz-adv-x="1110" 
d="M504 903q188 0 320 -132.5t132 -319.5v-451h-133v451q0 132 -93.5 224.5t-225.5 92.5t-226 -92.5t-94 -224.5v-451h-133v1434h133v-662q134 131 320 131zM-102 1921l104 90l145 -170q11 11 95 113q41 49 49 57l104 -88l-102 -123q-102 -120 -103 -121h-88z" />
    <glyph glyph-name="commaturnedmod" unicode="&#x2bb;" horiz-adv-x="407" 
d="M348 1266q15 -6 27 -21q31 -28 31 -69t-31 -72q-29 -29 -70 -29q-40 0 -72 29q-28 31 -28 72q0 25 10 45l80 209l102 -39z" />
    <glyph glyph-name="apostrophemod" unicode="&#x2bc;" horiz-adv-x="407" 
d="M262 1239q-14 5 -26 21q-31 28 -31 69t31 72q29 29 69 29t72 -29q29 -32 29 -72q0 -23 -11 -45l-80 -209l-102 39z" />
    <glyph glyph-name="commareversedmod" unicode="&#x2bd;" horiz-adv-x="407" 
d="M348 1239l49 -125l-102 -39l-80 209q-10 20 -10 45q0 41 28 72q32 29 72 29q41 0 70 -29q31 -31 31 -72t-31 -69q-12 -15 -27 -21z" />
    <glyph glyph-name="circumflexmod" unicode="&#x2c6;" horiz-adv-x="985" 
d="M692 1321h88q18 -18 103 -121l102 -123l-104 -88q-1 0 -50 58q-26 31 -50 59t-33.5 40t-10.5 13l-145 -170l-105 88z" />
    <glyph glyph-name="caronmod" unicode="&#x2c7;" horiz-adv-x="753" 
d="M487 1231l105 90l145 -172q1 2 94 115q36 43 50 57l104 -90l-102 -121q-100 -121 -103 -121h-88z" />
    <glyph glyph-name="verticallinemod" unicode="&#x2c8;" horiz-adv-x="397" 
d="M377 999h-123v514h123v-514z" />
    <glyph glyph-name="macronmod" unicode="&#x2c9;" horiz-adv-x="999" 
d="M487 1065v123h514v-123h-514z" />
    <glyph glyph-name="acutemod" unicode="&#x2ca;" horiz-adv-x="352" 
d="M229 1288l127 -98l-69 -90l-176 -142l-86 70z" />
    <glyph glyph-name="gravemod" unicode="&#x2cb;" horiz-adv-x="352" 
d="M154 1288l202 -260l-86 -70l-174 142l-71 90z" />
    <glyph glyph-name="lowverticallinemod" unicode="&#x2cc;" horiz-adv-x="397" 
d="M377 -246h-123v514h123v-514z" />
    <glyph glyph-name="lowmacronmod" unicode="&#x2cd;" horiz-adv-x="817" 
d="M817 -219v-135h-817v135h817z" />
    <glyph glyph-name="lowgravemod" unicode="&#x2ce;" horiz-adv-x="352" 
d="M182 -76l166 -362l-121 -58l-166 213l-57 127z" />
    <glyph glyph-name="lowacutemod" unicode="&#x2cf;" horiz-adv-x="352" 
d="M229 -121l127 -100l-69 -90l-176 -140l-86 70z" />
    <glyph glyph-name="brevemod" unicode="&#x2d8;" horiz-adv-x="643" 
d="M262 1438v-29q0 -60 39 -96q37 -37 94 -37q59 0 99 37q36 36 36 96v29h113v-29q0 -100 -74 -174t-174 -74q-98 0 -172 74q-76 73 -76 174v29h115z" />
    <glyph glyph-name="dotaccentmod" unicode="&#x2d9;" horiz-adv-x="647" 
d="M289 1268q35 0 60.5 -24.5t25.5 -59.5t-25.5 -60.5t-60.5 -25.5t-59.5 25.5t-24.5 60.5t24.5 59.5t59.5 24.5z" />
    <glyph glyph-name="ringmod" unicode="&#x2da;" horiz-adv-x="557" 
d="M365 1376q82 0 141 -59t59 -141q0 -80 -59.5 -140.5t-140.5 -60.5t-141 60.5t-60 140.5q0 82 59.5 141t141.5 59zM365 1069q46 0 76 30.5t30 76.5t-30 76t-76 30t-76.5 -30t-30.5 -76t30.5 -76.5t76.5 -30.5z" />
    <glyph glyph-name="ogonekmod" unicode="&#x2db;" horiz-adv-x="1024" 
d="M262 -143q-17 7 -26 16q-31 22 -31 51q0 31 31 56q30 20 69 20t72 -20q29 -26 29 -56q0 -18 -11 -33l-80 -157l-102 30z" />
    <glyph glyph-name="tildemod" unicode="&#x2dc;" horiz-adv-x="694" 
d="M424 1208l16 -12q27 -18 60 -12q18 5 31 15.5t34 41.5l109 -74q-65 -91 -148 -110q-83 -15 -159 33l-17 12q-26 18 -59 12q-18 -3 -31.5 -14.5t-34.5 -42.5l-106 73q63 96 147 111q84 16 158 -33z" />
    <glyph glyph-name="doubleacutemod" unicode="&#x2dd;" horiz-adv-x="1024" 
d="M-102 1452l127 -98l-70 -90l-176 -142l-86 70zM229 1452l127 -98l-69 -90l-174 -142l-88 70z" />
    <glyph glyph-name="crossmod" unicode="&#x2df;" horiz-adv-x="1056" 
d="M831 1012l205 -221l-69 -62l-201 213l-215 -225l-68 65l219 230l-208 225l71 61l201 -219l203 219l71 -61z" />
    <glyph glyph-name="voicingmod" unicode="&#x2ec;" horiz-adv-x="753" 
d="M283 -193l104 91l145 -170q15 15 95 112q46 56 49 58l104 -91l-102 -120q-100 -121 -103 -121h-88z" />
    <glyph glyph-name="ringcomb" unicode="&#x30a;" horiz-adv-x="0" 
d="M-1159 1376q82 0 141.5 -59t59.5 -141q0 -80 -60 -140.5t-141 -60.5t-141 60.5t-60 140.5q0 82 59.5 141t141.5 59zM-1159 1069q46 0 76 30.5t30 76.5t-30 76t-76 30t-76.5 -30t-30.5 -76t30.5 -76.5t76.5 -30.5z" />
    <glyph glyph-name="doubleacutecomb" unicode="&#x30b;" horiz-adv-x="0" 
d="M-1315 1452l127 -98l-69 -90l-177 -142l-86 70zM-983 1452l127 -98l-70 -90l-174 -142l-88 70z" />
    <glyph glyph-name="caroncomb" unicode="&#x30c;" horiz-adv-x="0" 
d="M-1581 1231l104 90l146 -172q1 2 94 115q41 49 49 57l105 -90l-103 -121q-100 -121 -102 -121h-88z" />
    <glyph glyph-name="verticallinecomb" unicode="&#x30d;" horiz-adv-x="0" 
d="M-938 999h-123v514h123v-514z" />
    <glyph glyph-name="doubleverticallinecomb" unicode="&#x30e;" horiz-adv-x="0" 
d="M-1077 999h-123v514h123v-514zM-877 999h-122v514h122v-514z" />
    <glyph glyph-name="doublegravecomb" unicode="&#x30f;" horiz-adv-x="0" 
d="M-1403 1456l166 -362l-121 -58l-166 213l-57 127zM-1059 1456l166 -362l-121 -58l-166 213l-57 127z" />
    <glyph glyph-name="turnedcommacomb" unicode="&#x312;" horiz-adv-x="407" 
d="M348 1266q15 -6 27 -21q31 -28 31 -69t-31 -72q-29 -29 -70 -29q-40 0 -72 29q-28 31 -28 72q0 25 10 45l80 209l102 -39z" />
    <glyph glyph-name="commacomb" unicode="&#x313;" horiz-adv-x="407" 
d="M262 1239q-14 5 -26 21q-31 28 -31 69t31 72q29 29 69 29t72 -29q29 -32 29 -72q0 -23 -11 -45l-80 -209l-102 39z" />
    <glyph glyph-name="reversedcommacomb" unicode="&#x314;" horiz-adv-x="407" 
d="M348 1239l49 -125l-102 -39l-80 209q-10 20 -10 45q0 41 28 72q32 29 72 29q41 0 70 -29q31 -31 31 -72t-31 -69q-12 -15 -27 -21z" />
    <glyph glyph-name="commaaboverightcomb" unicode="&#x315;" horiz-adv-x="407" 
d="M262 1239q-14 5 -26 21q-31 28 -31 69t31 72q29 29 69 29t72 -29q29 -32 29 -72q0 -23 -11 -45l-80 -209l-102 39z" />
    <glyph glyph-name="gravebelowcomb" unicode="&#x316;" horiz-adv-x="0" 
d="M-1223 -76l166 -362l-121 -58l-165 213l-58 127z" />
    <glyph glyph-name="acutebelowcomb" unicode="&#x317;" horiz-adv-x="0" 
d="M-1135 -121l127 -100l-69 -90l-176 -140l-86 70z" />
    <glyph glyph-name="horncomb" unicode="&#x31b;" horiz-adv-x="407" 
d="M262 1239q-14 5 -26 21q-31 28 -31 69t31 72q29 29 69 29t72 -29q29 -32 29 -72q0 -23 -11 -45l-80 -209l-102 39z" />
    <glyph glyph-name="commaaccentcomb" unicode="&#x326;" horiz-adv-x="0" 
d="M-1020 -416q-10 2 -18 15q-23 20 -23 49q0 26 23 49q17 20 47 20q31 0 51 -20q20 -23 20 -49q0 -13 -8 -33l-55 -145l-72 26z" />
    <glyph glyph-name="ogonekcomb" unicode="&#x328;" horiz-adv-x="753" 
d="M707 -383q-215 0 -215 174q0 101 92 225l82 -4q-62 -106 -62 -168q0 -98 148 -98h8l-6 -127z" />
    <glyph glyph-name="quoteleft" unicode="&#x2018;" horiz-adv-x="333" 
d="M328 1434v-138l-21 -262h-135l-20 262v138h176z" />
    <glyph glyph-name="quoteright" unicode="&#x2019;" horiz-adv-x="333" 
d="M328 1434v-138l-21 -262h-135l-20 262v138h176z" />
    <glyph glyph-name="quotedblleft" unicode="&#x201c;" horiz-adv-x="550" 
d="M328 1434v-138l-21 -262h-135l-20 262v138h176zM549 1434v-138l-21 -262h-135l-20 262v138h176z" />
    <glyph glyph-name="quotedblright" unicode="&#x201d;" horiz-adv-x="550" 
d="M328 1434v-138l-21 -262h-135l-20 262v138h176zM549 1434v-138l-21 -262h-135l-20 262v138h176z" />
    <glyph glyph-name="foursuperior" unicode="&#x2074;" horiz-adv-x="643" 
d="M567 1270v-191h56v-116h-56v-168h-114v168h-326v92l313 446l95 -67l-248 -355h166v191h114z" />
    <glyph glyph-name="lirasign" unicode="&#x20a4;" horiz-adv-x="1214" 
d="M719 1395q118 0 227 -68q28 -20 49 -41l2 -2l-96 -98q-39 36 -82 51q-47 20 -98 20q-100 0 -184 -75q-54 -51 -54 -131v-2q0 -77 43 -164h375v-137h-313v-3q11 -34 16 -61q0 -4 2 -4h295v-137h-301q-3 0 -6 -19q-5 -16 -29 -71q-20 -45 -59 -99q-26 -36 -66 -82h13
q137 0 229 -92q77 -65 156 -65q104 0 229 131l100 -96q-163 -175 -331 -175q-128 0 -248 105q-33 30 -58 41q-40 14 -75 14q-102 0 -236 -82l-26 -16l-84 106q65 58 102 95q97 90 111 108q58 67 79 103q33 44 45 79l7 15h-213v137h2h221q0 6 -21 59q-4 8 -4 9h-196h-2v137h2
h135q-31 88 -31 157v13q0 94 51 176q4 7 43 51q128 113 279 113z" />
    <glyph glyph-name="pesetasign" unicode="&#x20a7;" horiz-adv-x="2088" 
d="M743 709q113 0 189 88q78 87 78 207t-78 210q-77 86 -189 86h-417v-591h417zM1073 778q-21 -36 -55 -78q-115 -127 -275 -127h-417v-573h-121v1434h538q162 0 275 -125q112 -124 112 -305q0 -46 -10 -101h49v369h136v-369h168v-135h-168v-397q0 -107 59 -172
q60 -66 156 -66h356q117 0 182 35q66 41 66 92q0 72 -72 107q-69 34 -162 34h-8q-200 0 -283 68q-86 68 -86 174q0 59 35 121q35 60 117 100q77 38 219 41h8q141 0 217 -43q81 -46 115 -106q12 -21 21 -39q2 -2 2 -8l-125 -39q-9 42 -54 75q-55 43 -182 43h-6
q-131 0 -182 -45t-51 -100q0 -52 51 -86q53 -35 184 -35q175 0 275 -65q99 -63 102 -197v-6q0 -87 -51 -141q-51 -57 -140 -84q-92 -29 -190 -29h-358q-152 0 -250 104q-101 104 -101 267v397h-96v10z" />
    <glyph glyph-name="numerosign" unicode="&#x2116;" horiz-adv-x="1875" 
d="M1233 1434v-1434h-103l-792 1151v-1151h-133v1434h102l793 -1151v1151h133zM1657 1462q100 0 174 -74t74 -174v-174q0 -100 -74 -173.5t-174 -73.5q-99 0 -173.5 74t-74.5 173v174q0 99 74.5 173.5t173.5 74.5zM1792 1040v174q0 58 -38 96t-97 38q-58 0 -95.5 -37.5
t-37.5 -96.5v-174q0 -58 37 -95.5t96 -37.5t97 37.5t38 95.5z" />
    <glyph glyph-name="trademark" unicode="&#x2122;" horiz-adv-x="1763" 
d="M205 1442v84h651v-84h-283v-826h-86v826h-282zM1313 758l362 768h70v-910h-84v678l-324 -678h-53l-321 678v-678h-84v910h67z" />
    <glyph glyph-name="notequalto" unicode="&#x2260;" horiz-adv-x="1060" 
d="M1073 365v-136h-934v136h934zM1073 674v-135h-934v135h934zM965 764l-592 -651l-123 28l592 650z" />
    <glyph glyph-name="nonmarkingreturn.1" horiz-adv-x="0" 
 />
    </font>
</defs>
</svg>
